Классический форум-трекер
canvas not supported
Нас вместе: 4 079 245

Лондонский Музей естествознания вживую с Дэвидом Аттенборо / David Attenborough's Natural History Museum Alive (2014) BDRip [H.264/720p]


 
 
RSS
Начать новую тему   Ответить на тему    Торрент-трекер NNM-Club -> Зарубежные TV-бренды -> Доисторический мир
Автор Сообщение
Отец Лоренцо ®
Uploader 1000+, Сталкер
Стаж: 7 лет 9 мес.
Сообщений: 4039
Ratio: 7393,141
Раздал: 1,0172 PB
Поблагодарили: 121840
100%
Откуда: Харьков, Украина
Лондонский Музей естествознания вживую с Дэвидом Аттенборо / David Attenborough's Natural History Museum Alive (2014) BDRip [H.264/720p]
Режиссер / Телекомпания: Дэниэл М. Смит / Colossus Productions, Sky TV
Страна: Великобритания
Год выпуска: 2014
Жанр: Документальный, научно-познавательный, палеонтология
Участники: Дэвид Аттенборо

Перевод: Одноголосый закадровый (любительский)
Cубтитры: вшитые
Язык субтитров: русский, английский

Продолжительность: 01:06:51

Описание: Дэвид Аттенборо приглашает зрителей в путешествие по Лондонскому музею естествознания. Когда двери музея заперты и наступает ночь, Аттенборо рассказывает о некоторых из самых увлекательных вымерших животных, которые оживают на его глазах: динозавры, фауна ледникового периода и гигантские рептилии.

Качество видео: BDRip [720p]
Видеокодек: MPEG-4 AVC/H.264
Формат видео: MKV
Видео: 1280x720, 23,976 fps, 5000 kbps
Аудио 1: AC3, 2 ch, 192 Кбит/с [русский]
Аудио 2: AC3, 2 ch, 192 Кбит/с [английский]
Автор рипа - Fандорин
Перевод русских субтитров и работа со звуком - Ash61
Озвучка - sawgod.
Общее
Уникальный идентификатор : 244492882413215813532236630262316204494 (0xB7EF9DC8A63B394B90587A11256701CE)
Полное имя : D:\Релизы\Natural.History.Museum.Alive.(2014).BDRip.720p.mkv
Формат : Matroska
Версия формата : Version 1
Размер файла : 2,52 Гбайт
Продолжительность : 1 ч. 6 м.
Общий поток : 5387 Кбит/сек
Дата кодирования : UTC 2015-01-10 20:58:27
Программа кодирования : mkvmerge v2.1.0 ('Another Place To Fall') built on Aug 19 2007 13:40:07
Библиотека кодирования : libebml v0.7.7 + libmatroska v0.8.1

Видео
Идентификатор : 1
Формат : AVC
Формат/Информация : Advanced Video Codec
Профиль формата : High@L4.1
Параметр CABAC формата : Да
Параметр ReFrames формата : 10 кадров
Идентификатор кодека : V_MPEG4/ISO/AVC
Продолжительность : 1 ч. 6 м.
Битрейт : 5000 Кбит/сек
Ширина : 1280 пикселей
Высота : 720 пикселей
Соотношение сторон : 16:9
Режим частоты кадров : Постоянный
Частота кадров : 23,976 кадра/сек
Цветовое пространство : YUV
Субдискретизация насыщенности : 4:2:0
Битовая глубина : 8 бит
Тип развёртки : Прогрессивная
Бит/(Пиксели*Кадры) : 0.226
Размер потока : 2,29 Гбайт (91%)
Заголовок : Rip by Fандорин [Кинозал.ТВ]
Библиотека кодирования : x264 core 130 r2273 b3065e6
Настройки программы : cabac=1 / ref=10 / deblock=1:-3:-3 / analyse=0x3:0x133 / me=umh / subme=10 / psy=1 / psy_rd=1.00:0.10 / mixed_ref=1 / me_range=48 / chroma_me=1 / trellis=2 / 8x8dct=1 / cqm=0 / deadzone=21,11 / fast_pskip=0 / chroma_qp_offset=-3 / threads=6 / lookahead_threads=1 / sliced_threads=0 / nr=0 / decimate=1 / interlaced=0 / bluray_compat=0 / constrained_intra=0 / bframes=7 / b_pyramid=2 / b_adapt=2 / b_bias=0 / direct=3 / weightb=1 / open_gop=0 / weightp=2 / keyint=250 / keyint_min=25 / scenecut=40 / intra_refresh=0 / rc_lookahead=40 / rc=2pass / mbtree=1 / bitrate=5000 / ratetol=1.0 / qcomp=0.60 / qpmin=10 / qpmax=51 / qpstep=4 / cplxblur=20.0 / qblur=0.5 / ip_ratio=1.40 / aq=1:1.00
Default : Да
Forced : Нет

Аудио #1
Идентификатор : 2
Формат : AC-3
Формат/Информация : Audio Coding 3
Расширение режима : CM (complete main)
Параметр Endianness формата : Big
Идентификатор кодека : A_AC3
Продолжительность : 1 ч. 6 м.
Вид битрейта : Постоянный
Битрейт : 192 Кбит/сек
Каналы : 2 канала
Расположение каналов : Front: L R
Частота : 48,0 КГц
Битовая глубина : 16 бит
Метод сжатия : С потерями
Размер потока : 91,8 Мбайт (4%)
Язык : Russian
Default : Да
Forced : Нет

Аудио #2
Идентификатор : 3
Формат : AC-3
Формат/Информация : Audio Coding 3
Расширение режима : CM (complete main)
Параметр Endianness формата : Big
Идентификатор кодека : A_AC3
Продолжительность : 1 ч. 6 м.
Вид битрейта : Постоянный
Битрейт : 192 Кбит/сек
Каналы : 2 канала
Расположение каналов : Front: L R
Частота : 48,0 КГц
Битовая глубина : 16 бит
Метод сжатия : С потерями
Размер потока : 91,8 Мбайт (4%)
Язык : English
Default : Нет
Forced : Нет

Текст #1
Идентификатор : 4
Формат : UTF-8
Идентификатор кодека : S_TEXT/UTF8
Идентификатор кодека/Информация : UTF-8 Plain Text
Язык : Russian
Default : Да
Forced : Нет

Текст #2
Идентификатор : 5
Формат : UTF-8
Идентификатор кодека : S_TEXT/UTF8
Идентификатор кодека/Информация : UTF-8 Plain Text
Язык : English
Default : Нет
Forced : Нет
Скриншоты:

Пожалуйста, не уходите с раздачи - помогите докачать другим. Если понравился релиз - жмите кнопку "Спасибо"! :приветствую:

Время раздачи: 24 / 7

"Лондонский Музей естествознания вживую с Дэвидом Аттенборо / David Attenborough's Natural History Museum Alive" на NoNaMe Club

Релиз: Fандорин
[NNM-Club.me]_Natural.History.Museum.Alive.(2014).BDRip.720p.mkv.torrent
 Торрент: Платиновая раздача  Зарегистрирован
 
Скачать


Примагнититься
 Зарегистрирован:   11 Янв 2015 12:26:29
 Размер:   2,52 GB  (
 Рейтинг:   4,6 (Голосов: 93)
 Поблагодарили:   371
 Проверка:   Оформление проверено модератором 11 Янв 2015 12:34:42
Как cкачать  ·  Как раздать  ·  Правильно оформить  ·  Поднять ратио!  
psiisyapk
Стаж: 8 лет 8 мес.
Сообщений: 2
Ratio: 3,019
0%
ну прям ночь в музее
deimos31337
Uploader 100+
Стаж: 8 лет 10 мес.
Сообщений: 29
Ratio: 97,567
100%
Удивлен, почему такого замечательного документального фильма нет в базе кинопоиска. Спасибо за раздачу!
rmyshkin
Стаж: 8 лет 4 мес.
Сообщений: 300
Ratio: 30,266
Поблагодарили: 1226
100%
Откуда: Keniksberg
Отец Лоренцо
Чего-то понять не могу. Смотрел или тет? там ещё динозаврики бегают по музею. Этот фильм или это продолжение,
а сюжет, то хороший :подмигивание: всё разобрался - это продолжение :респект:
Tokano
Стаж: 6 лет 7 мес.
Сообщений: 133
Ratio: 23,498
0.38%
Спасибо автору за раздачу!
Сразу вспомнил шедевральный фильм "Миллион лет до нашей эры".
amiga1200
Стаж: 8 лет 1 мес.
Сообщений: 636
Ratio: 5,364
Раздал: 5,921 TB
Поблагодарили: 35
57.54%
Откуда: C.-Петербург
russia.gif
Люблю этого старика! Профессионал высочайшего класса в документалистике!
Показать сообщения:   
Начать новую тему   Ответить на тему    Торрент-трекер NNM-Club -> Зарубежные TV-бренды -> Доисторический мир Часовой пояс: GMT + 3
Страница 1 из 1