Классический форум-трекер
canvas not supported
Нас вместе: 4 101 016

Битва за Мён Рян / Myeong-ryang (2014) HDTV [720p] [VO]


Страницы:  1, 2  След. 
 
RSS
Начать новую тему   Ответить на тему    Торрент-трекер NNM-Club -> Зарубежное кино -> Азиатское кино (HD, UHD, UHD-LQ)
Автор Сообщение
dimagor ®
Стаж: 9 лет 5 мес.
Сообщений: 1510
Ratio: 345,915
Поблагодарили: 275909
100%
russia.gif
Битва за Мён Рян / Myeong-ryang (2014) HDTV
Производство: Южная Корея, CJ Entertainment
Жанр: История, Военный, Приключения
Перевод: Одноголосый закадровый, любительский
Озвучка / Автор перевода: Дмитрий Познанский / Виктория Широкова
Субтитры: Вшитые отключаемые
Язык субтитров: Английский

Дата мировой премьеры: 30 июля 2014

Режиссер: Ким Хан Мин
Продюсер: Сангжин Юнг
Актеры: Чхве Мин Сик, Сын-Рён Рёо, Рю Сын Рён, Джин-Вонг Чо, Ким Мён Гон, Чин Гу, Ли Чун Хюн, Чо Чжин Ун

Описание фильма:
Фильм рассказывает об известной битве за Мён Рян, состоявшейся в 1597 году во время японского вторжения в Корею. Тогда культовому адмиралу Ли Сунсину удалось уничтожить 133 японских корабля имея флот всего в 13 кораблей.



Продолжительность: 02:08:18
Качество видео: HDTV 720p

Видеокодек: MPEG-4 AVC/H.264
Битрейт видео: ~3913 kb/s
Размер кадра: 1280х544
Аудиокодек: AC3 2.0
Аудио#1: 192 kb/s, 2ch - Русский
Аудио#2: 192 kb/s, 2ch - Корейский
Код:

Общее
Уникальный идентификатор                 : 255034086470764452434908016575305165515 (0xBFDDC7450C74C489BEE6F42673432ACB)
Полное имя                               : D:\KINO 3\Myeong.ryangl.2014.HDTV.720p.mkv
Формат                                   : Matroska
Версия формата                           : Version 4 / Version 2
Размер файла                             : 3,93 Гбайт
Продолжительность                        : 2 ч. 8 м.
Режим общего битрейта                    : Переменный
Общий поток                              : 4384 Кбит/сек
Дата кодирования                         : UTC 2015-01-16 09:11:31
Программа кодирования                    : mkvmerge v7.5.0 ('Glass Culture') 64bit built on Jan  4 2015 16:48:44
Библиотека кодирования                   : libebml v1.3.1 + libmatroska v1.4.2

Видео
Идентификатор                            : 1
Формат                                   : AVC
Формат/Информация                        : Advanced Video Codec
Профиль формата                          : High@L4.1
Параметр CABAC формата                   : Да
Параметр ReFrames формата                : 5 кадров
Идентификатор кодека                     : V_MPEG4/ISO/AVC
Продолжительность                        : 2 ч. 8 м.
Вид битрейта                             : Переменный
Битрейт                                  : 3913 Кбит/сек
Максимальный битрейт                     : 40,0 Мбит/сек
Ширина                                   : 1280 пикселей
Высота                                   : 544 пикселя
Соотношение сторон                       : 2,35:1
Режим частоты кадров                     : Постоянный
Частота кадров                           : 23,976 кадра/сек
Цветовое пространство                    : YUV
Субдискретизация насыщенности            : 4:2:0
Битовая глубина                          : 8 бит
Тип развёртки                            : Прогрессивная
Бит/(Пиксели*Кадры)                      : 0.234
Размер потока                            : 3,51 Гбайт (89%)
Default                                  : Да
Forced                                   : Нет

Аудио #1
Идентификатор                            : 2
Формат                                   : AC-3
Формат/Информация                        : Audio Coding 3
Расширение режима                        : CM (complete main)
Параметр Endianness формата              : Big
Идентификатор кодека                     : A_AC3
Продолжительность                        : 2 ч. 8 м.
Вид битрейта                             : Постоянный
Битрейт                                  : 192 Кбит/сек
Каналы                                   : 2 канала
Расположение каналов                     : Front: L R
Частота                                  : 48,0 КГц
Битовая глубина                          : 16 бит
Метод сжатия                             : С потерями
Задержка видео                           : 17 мс.
Размер потока                            : 176 Мбайт (4%)
Заголовок                                : Green Tea
Язык                                     : Russian
Default                                  : Да
Forced                                   : Да

Аудио #2
Идентификатор                            : 3
Формат                                   : AC-3
Формат/Информация                        : Audio Coding 3
Расширение режима                        : CM (complete main)
Параметр Endianness формата              : Big
Идентификатор кодека                     : A_AC3
Продолжительность                        : 2 ч. 8 м.
Вид битрейта                             : Постоянный
Битрейт                                  : 192 Кбит/сек
Каналы                                   : 2 канала
Расположение каналов                     : Front: L R
Частота                                  : 48,0 КГц
Битовая глубина                          : 16 бит
Метод сжатия                             : С потерями
Задержка видео                           : 17 мс.
Размер потока                            : 176 Мбайт (4%)
Язык                                     : Korean
Default                                  : Нет
Forced                                   : Нет

Текст #2
Идентификатор                            : 5
Формат                                   : UTF-8
Идентификатор кодека                     : S_TEXT/UTF8
Идентификатор кодека/Информация          : UTF-8 Plain Text
Язык                                     : English
Default                                  : Нет
Forced                                   : Нет

Скриншоты:


Время раздачи: 24/7 до 5 скачавших
[NNM-Club.me]_Myeong.ryangl.2014.HDTV.720p.mkv.torrent
 Торрент: Платиновая раздача  Зарегистрирован
 
Скачать


Примагнититься
 Зарегистрирован:   16 Янв 2015 15:49:28
 Размер:   3,93 GB  (
 Рейтинг:   4,7 (Голосов: 110)
 Поблагодарили:   542
 Проверка:   Оформление проверено модератором 22 Янв 2015 09:12:52
Как cкачать  ·  Как раздать  ·  Правильно оформить  ·  Поднять ратио!  
dooctoor
Стаж: 12 лет 11 мес.
Сообщений: 187
Ratio: 4,708
5.43%
Апскейл могучий на скриншотах вижу я. На темную сторону перешел ты, юный падаван.
 !  Примечание от batonchik:
5.7. Запрещены неаргументированные отрицательные комментарии в отношении релиза

А я вот не вижу никакого апскейла!
D_Ex
Стаж: 9 лет 5 мес.
Сообщений: 136
Ratio: 2,519
Поблагодарили: 257
87.67%
Отличное кино. Отличное мочилово.
У злодеев мимика как всегда переиграна, типа это вообще звери какие-то, а не люди. Но сейчас везде такая ошибка.
Crony1
Стаж: 6 лет 11 мес.
Сообщений: 45
Ratio: 49,963
100%
Особенно впечатляет скорость с которой двигаются десантные корыта без парусов,на одних веслах...........Аж пену на воде взбивают)))))
Roocky
Стаж: 10 лет 1 мес.
Сообщений: 401
Ratio: 2,228
2.87%
russia.gif
Мне такие фильмы нравятся)) Ещё бы таких.
19820727
 
Стаж: 9 лет 10 мес.
Сообщений: 127
Ratio: 146,12
100%
ussr.gif
Вообще то фильм называется "Адмирал"....
herezad
Стаж: 8 лет 9 мес.
Сообщений: 2279
Ratio: 25,884
Поблагодарили: 50258
100%
УШАКОВ? )))
windows65
Стаж: 8 лет 10 мес.
Сообщений: 205
Ratio: 3,54
100%
Откуда: Klaipeda
lithuania.gif
Колчак =))))
Melkor_Dark
Стаж: 9 лет
Сообщений: 153
Ratio: 7,484
74.61%
russia.gif
Хороший актер, хороший фильм. Заметил его в ОлдБой и полюбил. Сравни нашему Янковскому, чуть бровью повел и ясно все. Нравятся корейские фильмы, ни на что не похожи. Респект.
abracadabr
Стаж: 10 лет 11 мес.
Сообщений: 666
Ratio: 11,096
100%
19820727 писал(а): Перейти к сообщению
Вообще то фильм называется "Адмирал"....

Вообще-то фильм называется «Мённян» 명량 (鳴梁) — по названию пролива, в котором произошла битва. Английские надмозги пихнули в название адмирала. Русские надмозги, в свою очередь, не осилили правильно написать корейское слово русскими буквами, потому что российское востоковедение умерло, а корейские фильмы переводят теперь по английским субтитрам.

Для корейцев «Мённян» так же понятно в названии фильма, как для русских «Сталинград». И никакие генералы-адмиралы там не нужны.
Старик2013
Стаж: 6 лет 6 мес.
Сообщений: 22
Ratio: 0,887
100%
Очень плохое кино. Тема интересная, а сценарий с режиссурой совершенно бездарные.
Brosha
Стаж: 12 лет 3 мес.
Сообщений: 305
Ratio: 41,848
Поблагодарили: 1011
100%
pirates.png
Кому, как, а мне на ура, фильм не плох.
uncleandy
Стаж: 10 лет 1 мес.
Сообщений: 115
Ratio: 120,211
100%
Фильм отличный! Исторический, но снят очень хорошо. Захватывает и держит весь фильм.
volk05
Стаж: 9 лет 10 мес.
Сообщений: 165
Ratio: 9,381
100%
russia.gif
Отличный фильм, ещё бы такие фильмы.
6Chikper6
Стаж: 9 лет 11 мес.
Сообщений: 254
Ratio: 0,723
100%
romania.gif
Благодарю! Фильм хорошо пошел, на раз!
Показать сообщения:   
Начать новую тему   Ответить на тему    Торрент-трекер NNM-Club -> Зарубежное кино -> Азиатское кино (HD, UHD, UHD-LQ) Часовой пояс: GMT + 3
Страницы:  1, 2  След.
Страница 1 из 2