Классический форум-трекер
canvas not supported
Нас вместе: 4 130 523

Рэки Кавахара | Ария в беззвездной ночи [Sword Art Online - Progressive 1] (2013-15) [m4b|AAC]


 
 
RSS
Начать новую тему   Ответить на тему    Торрент-трекер NNM-Club -> Аудио и Видео -> Аудиокниги (AAC)
Автор Сообщение
Ivanson-apple ®
Стаж: 5 лет 9 мес.
Сообщений: 415
Ratio: 745,151
Раздал: 34,79 TB
Поблагодарили: 20356
100%
ussr.gif
Рэки Кавахара | Ария в беззвездной ночи
Автор: Рэки Кавахара
Серия: Мастера меча онлайн / Sword Art Online - Progressive 1
Год: 2013-15
Жанр: Научная фантастика, приключения, боевик, романтика
Продолжительность: 12:41:18
Исполнитель: Adrenalin
Издательство: Аудиокнига своими руками

Описание:
Серия Progressive была запущена с целью показать приключения героев первой арки истории, Айнкрада, более последовательно, начиная с первого уровня, так как первый том основной серии подробно описал события на 74-75 уровнях смертельной игры Sword Art Online, а второй том попросту был набором историй из разных временных периодов. Первый том прогрессива включает в себя истории о прохождении первого и второго уровня виртуального Айнкрада, опубликованных ранее в виде небольших веб-историй. Слушать это рекомендуется после ознакомления хотя бы с первым томом основной истории.

Формат: m4b
Аудиокодек: AAC
Битрейт: 128 kbps
Частота дискретизации: 44,1 kHz
Разбиевка на части: нет
Разбивка на главы: есть
Вшитые обложки: есть
Музыкальное сопровождение: есть
Код:
General
Complete name : /Users/Ivanson/Music/iTunes/iTunes Media/Audiobooks/Рэки Кавахара/01 Книга 1_ Ария в беззвездной ночи.m4b
Format : MPEG-4
Format profile : Base Media / Version 2
Codec ID : mp42
File size : 711 MiB
Duration : 12h 41mn
Overall bit rate mode : Variable
Overall bit rate : 131 Kbps
Movie name : Книга 1: Ария в беззвездной ночи
Album : Sword Art Online: Progressive
Album/Performer : Рэки Кавахара
Part/Position : 1
Part/Total : 1
Track name/Position : 1
Performer : Рэки Кавахара
Composer : Adrenalin
Genre : Аудиоранобе, научная фантастика, приключения, романтика
ContentType : Audiobook
Recorded date : 2015
Encoded date : UTC 2015-08-23 11:46:42
Tagged date : UTC 2015-08-23 15:51:55
Cover : Yes
Comment : Перевод: Ushwood | Читает: Adrenalin

Video
ID : 2
Format : PNG
Format/Info : Portable Network Graphic
Codec ID : png
Duration : 12h 41mn
Bit rate mode : Variable
Bit rate : 3 499 bps
Width : 512 pixels
Height : 512 pixels
Display aspect ratio : 1.000
Frame rate mode : Variable
Frame rate : 0.001 fps
Minimum frame rate : 0.000 fps
Maximum frame rate : 0.005 fps
Compression mode : Lossless
Bits/(Pixel*Frame) : 13.348
Stream size : 12.9 MiB (2%)
Language : English
Encoded date : UTC 2015-08-23 11:47:46
Tagged date : UTC 2015-08-23 11:47:52

Audio
ID : 1
Format : AAC
Format/Info : Advanced Audio Codec
Format profile : LC
Codec ID : 40
Duration : 12h 41mn
Source duration : 12h 41mn
Bit rate mode : Constant
Bit rate : 128 Kbps
Channel(s) : 2 channels
Channel(s)_Original : 1 channel
Channel positions : Front: C
Sampling rate : 44.1 KHz
Compression mode : Lossy
Stream size : 686 MiB (97%)
Source stream size : 686 MiB (97%)
Language : English
Encoded date : UTC 2015-08-23 11:46:25
Tagged date : UTC 2015-08-23 15:51:55

Menu
ID : 3
Codec ID : text
Duration : 12h 41mn
Language : English
Encoded date : UTC 2015-08-23 11:47:52
Tagged date : UTC 2015-08-23 11:47:52
00:00:00.000 : История 1, глава 1
00:15:40.668 : История 1, глава 2
00:26:52.405 : История 1, глава 3
00:43:41.383 : История 1, глава 4
00:54:17.020 : История 1, глава 5
01:19:07.723 : История 1, глава 6
01:35:10.306 : История 1, глава 7
01:52:19.321 : История 1, глава 8
02:03:53.731 : История 1, глава 9
02:13:24.115 : История 1, глава 10
02:18:17.391 : История 1, глава 11
02:28:39.810 : История 1, глава 12
02:32:09.180 : История 1, глава 13
02:49:45.073 : История 1, глава 14
03:15:14.673 : История 1, глава 15
03:36:14.323 : Интермиссия "Почему усы"
04:15:13.141 : История 2, глава 1
04:48:51.045 : История 2, глава 2
05:13:37.070 : История 2, глава 3
05:34:09.446 : История 2, глава 4
06:11:18.316 : История 2, глава 5
06:49:03.250 : История 2, глава 6
07:18:12.068 : История 2, глава 7
07:47:53.041 : История 2, глава 8
08:13:09.501 : История 2, глава 9
09:03:59.818 : История 2, глава 10
10:00:58.330 : История 2, глава 11
10:32:21.493 : История 2, глава 12
11:44:26.140 : История 2, глава 13
12:19:49.501 : История 2, глава 14
12:33:00.801 : Послесловие автора
Bit rate mode : VBR


Релиз подготовлен для прослушивания на iPad, iPhone, iPod Touch, iPod Nano, iPod Shuffle.
[NNM-Club.me]_Ryeki Kavahara (2015) - Sword Art Online - Progressive 1 - Ariya v bezzvezdnoy nochi.torrent
 Торрент: Платиновая раздача  Зарегистрирован
 
Скачать


Примагнититься
 Зарегистрирован:   23 Авг 2015 17:59:22
 Размер:   711 MB  (
 Рейтинг:   3,3 (Голосов: 10)
 Поблагодарили:   22
 Проверка:   Оформление проверено модератором 23 Авг 2015 21:18:54
Как cкачать  ·  Как раздать  ·  Правильно оформить  ·  Поднять ратио!  
Ivanson-apple ®
Стаж: 5 лет 9 мес.
Сообщений: 415
Ratio: 745,151
Раздал: 34,79 TB
Поблагодарили: 20356
100%
ussr.gif
Внимание! Книга обновлена - добалена вторая и завершающая часть!
Показать сообщения:   
Начать новую тему   Ответить на тему    Торрент-трекер NNM-Club -> Аудио и Видео -> Аудиокниги (AAC) Часовой пояс: GMT + 3
Страница 1 из 1