Классический форум-трекер
canvas not supported
Нас вместе: 4 125 411

Против солнца / Against the Sun (2014) WEB-DL [720p] [EN / EN Sub]


 
 
RSS
Начать новую тему   Ответить на тему    Торрент-трекер NNM-Club -> Архив торрентов -> Архив Видео
Автор Сообщение
smaster67 ®
Покровитель талантов Uploader 300+
Стаж: 11 лет 2 мес.
Сообщений: 7116
Ratio: 222,453
Поблагодарили: 216531
100%
Против солнца / Against the Sun (2014) WEB-DL [720p] [EN / EN Sub]
Жанр: Приключения

Описание фильма:
Одна из самых страшных историй Второй мировой войны, три пилота американских ВВС вынуждены выживать после крушения самолёта в южной части Тихого Океана. Имея только небольшой спасательный плот, без еды, воды и вспомогательных материалов, трио должно полагаться на самих себя, чтобы пережить голод, шторма и атаки акул, и привести свой маленький плот в безопасное место.

Режиссер: Брайан Питер Фальк
Актеры: Том Фелтон, Гаррет Диллахант, Джейк Эйбел, Надя Парра

Продолжительность: 01:39:25
Качество видео: WEB-DL
Перевод: Отсутствует
Язык: Английский
Язык субтитров: Английские
Вид субтитров: Вшитые, отключаемые



Видеокодек: MPEG-4 AVC/H.264
Битрейт видео: ~4 063 Kbps
Размер кадра: 1280x720
Аудиокодек: AC3 5.1
Битрейт аудио: 384 Kbps
Сэмпл: Ссылка
Against the Sun.720p.WEB-DL.mkv
Format : Matroska
Format version : Version 4 / Version 2
File size : 3.15 GiB
Duration : 1h 39mn
Overall bit rate : 4 537 Kbps
Encoded date : UTC 2015-01-18 14:35:19
Writing application : mkvmerge v7.0.0 ('Where We Going') 64bit built on Jun 9 2014 15:16:27
Writing library : libebml v1.3.0 + libmatroska v1.4.1
DURATION : 01:32:20.567000000
NUMBER_OF_FRAMES : 1259
NUMBER_OF_BYTES : 37724
_STATISTICS_WRITING_APP : mkvmerge v7.0.0 ('Where We Going') 64bit built on Jun 9 2014 15:16:27
_STATISTICS_WRITING_DATE_UTC : 2015-01-18 14:35:19
_STATISTICS_TAGS : BPS DURATION NUMBER_OF_FRAMES NUMBER_OF_BYTES

Video
ID : 1
Format : AVC
Format/Info : Advanced Video Codec
Format profile : High@L3.1
Format settings, CABAC : No
Format settings, ReFrames : 2 frames
Codec ID : V_MPEG4/ISO/AVC
Duration : 1h 39mn
Bit rate : 4 063 Kbps
Width : 1 280 pixels
Height : 720 pixels
Display aspect ratio : 16:9
Frame rate mode : Constant
Frame rate : 23.976 fps
Color space : YUV
Chroma subsampling : 4:2:0
Bit depth : 8 bits
Scan type : Progressive
Bits/(Pixel*Frame) : 0.184
Stream size : 2.82 GiB (90%)
Language : English
Default : Yes
Forced : No
Color primaries : BT.709
Transfer characteristics : BT.709
Matrix coefficients : BT.709
Color range : Limited

Audio
ID : 2
Format : AC-3
Format/Info : Audio Coding 3
Mode extension : CM (complete main)
Format settings, Endianness : Big
Codec ID : A_AC3
Duration : 1h 39mn
Bit rate mode : Constant
Bit rate : 384 Kbps
Channel(s) : 6 channels
Channel positions : Front: L C R, Side: L R, LFE
Sampling rate : 48.0 KHz
Bit depth : 16 bits
Compression mode : Lossy
Stream size : 273 MiB (8%)
Language : English
Default : Yes
Forced : No

Text
ID : 3
Format : UTF-8
Codec ID : S_TEXT/UTF8
Codec ID/Info : UTF-8 Plain Text
Language : English
Default : No
Forced : No

Menu
00:00:00.000 : en:Chapter 1
00:13:08.000 : en:Chapter 2
00:24:00.000 : en:Chapter 3
00:33:30.000 : en:Chapter 4
00:43:33.000 : en:Chapter 5
00:49:44.000 : en:Chapter 6
01:00:16.000 : en:Chapter 7
01:13:50.000 : en:Chapter 8
01:21:50.000 : en:Chapter 9
01:34:36.000 : en:End Credits
Скриншоты:


Время раздачи: с 13:00 до 23:00
[NNM-Club.me]_Against the Sun.720p.WEB-DL.mkv.torrent
 Торрент: Серебряная раздча  Зарегистрирован
 
Зарегистрируйтесь и скачайте торрент!
15,9 KB

Примагнититься
 Зарегистрирован:   19 Янв 2015 18:46:51
 Размер:   3,15 GB  (
 Рейтинг:   4,6 (Голосов: 22)
 Поблагодарили:   85
 Проверка:   Оформление проверено модератором 19 Янв 2015 23:06:57
Как cкачать  ·  Как раздать  ·  Правильно оформить  ·  Поднять ратио!  
ray131
Стаж: 7 лет 2 мес.
Сообщений: 75
Ratio: 10,374
Поблагодарили: 1
100%
да вот только анжелина Жоли мне про это бубнила пол своего фильма
vladmad
Стаж: 9 лет 5 мес.
Сообщений: 585
Ratio: 6,766
0%
"Одна из самых страшных историй Второй мировой войны". Ну да, а у СССР и КА была так себе история. Подумаешь, какие-то 30 млн погибло. То ли дело 3 америкоса. От это да. Хистория.
skunz77
Стаж: 9 лет 4 мес.
Сообщений: 448
Ratio: 12,078
4.17%
Драко Малфою уже доверяют взрослые роли... :смех:
Eric_Bertrane
Стаж: 9 лет 6 мес.
Сообщений: 496
Ratio: 169,218
Раздал: 61,21 TB
100%
Откуда: Новосибирск
ussr.gif
smaster67

а что там с русским языком ? ожидается ?

_________________
Intel® Core™ i7-9700K@5.0GHz | Cooler Master 240 liquid
Видеокарты: GeForce® MSI RTX 2080 Trio Gaming X
Оперативная память: 16Gb DDR4 A-DATA XPG Spectrix d80 rgb liquid cooling 3700 Mhz
амбалушка
Стаж: 9 лет 6 мес.
Сообщений: 57
Ratio: 6,883
100%
Откуда: Россия
russia.gif
"Повесть о настоящем человеке". Вот где история - настоящая! Страшная! Американцам такое и не снилось. Фамилия этого человека - Мересьев!
ariokh
Стаж: 8 лет 9 мес.
Сообщений: 7
Ratio: 55,394
100%
амбалушка писал(а): Перейти к сообщению
"Повесть о настоящем человеке". Вот где история - настоящая! Страшная! Американцам такое и не снилось. Фамилия этого человека - Мересьев!

почитай про Хью Гласса
Voron-36
Стаж: 9 лет 5 мес.
Сообщений: 207
Ratio: 33,467
100%
Откуда: Воронеж
russia.gif
На картинке краф Дуглас SBD «Даунтлесс», только экипаж два человека, а тут три в описании...
куча_куча
Стаж: 10 лет 7 мес.
Сообщений: 71
Ratio: 72,314
100%
Фамилия этого человека - МАресьев!, а Мересьев - написание Полевго.
Yawdamper
Стаж: 8 лет 6 мес.
Сообщений: 3
Ratio: 8,412
100%
Voron-36 писал(а): Перейти к сообщению
На картинке краф Дуглас SBD «Даунтлесс», только экипаж два человека, а тут три в описании...

Вообще-то на картинке Douglas TBD Devastator и там экипаж 3 человека! И, конечно, не самая страшная история Второй Мировой, по сравнению с Освенцимом или холокостом.
vovka036
Стаж: 10 лет
Сообщений: 1465
Ratio: 0,75
96.69%
russia.gif
А кто описания фильмов придумывает? Не америкосы ли за нас?
Alexpunker
Стаж: 8 лет 10 мес.
Сообщений: 11
Ratio: 6,758
1.12%
Какие же вы далекие люди.У каждого народа были свои герои.Вот только американцы умеют снимать фильмы,а русские с 90-х к сожалению нет.Они даже про нашиг героев снимают.чего только стоит фильм о подводной лодке с Г.Фордом в роли капитана.
Топик был перенесен из форума Фильмы в оригинале (HD, UHD, UHD-LQ) в форум Архив Видео



Исправил релиз - напиши ЛС karfagen1975, дав ссылку на релиз.
Если нет ответа 24 часа - нажми на кнопку "Обратить внимание модераторов".
Показать сообщения:   
Начать новую тему   Ответить на тему    Торрент-трекер NNM-Club -> Архив торрентов -> Архив Видео Часовой пояс: GMT + 3
Страница 1 из 1