Классический форум-трекер
canvas not supported
Нас вместе: 4 125 422

Против Солнца / Against the Sun (2014) WEB-DLRip [VO]


Страницы:  1, 2, 3, 4, 5  След. 
 
RSS
Начать новую тему   Ответить на тему    Торрент-трекер NNM-Club -> Архив торрентов -> Архив Видео
Автор Сообщение
ZoNoW ®
Модератор Видео
Стаж: 9 лет 4 мес.
Сообщений: 7449
Ratio: 682K
Раздал: 82,14 TB
Поблагодарили: 3455148
100%
ussr.gif
Против Солнца / Against the Sun (2014) WEB-DLRip
Производство: США, American Film Company, The
Жанр: Приключения

Режиссер: Брайан Питер Фальк
Продюсер: Брайан Питер Фальк
Актеры: Том Фелтон, Гаррет Диллахант, Джейк Эйбел, Надя Парра

Описание фильма:
Одна из самых страшных историй Второй мировой войны, три пилота американских ВВС вынуждены выживать после крушения самолёта в южной части Тихого Океана. Имея только небольшой спасательный плот, без еды, воды и вспомогательных материалов, трио должно полагаться на самих себя, чтобы пережить голод, шторма и атаки акул, и привести свой маленький плот в безопасное место.

Перевод: Одноголосый закадровый, любительский (datynet)
Субтитры: Отсутствуют



Рейтинг MPAA: PG

Дата мировой премьеры: 23 января 2015

Продолжительность: 01:39:25
Качество видео: WEB-DLRip

Видеокодек: XviD
Битрейт видео: 1654 kb/s
Размер кадра: 720x400
Аудиокодек: MP3, 2 ch
Битрейт аудио: 192 kb/s
Сэмпл: Скачать
Общее
Полное имя : D:\Раздачи\Против.Солнца.2014.WEB-DLRip.NNM-CLUB.avi
Формат : AVI
Формат/Информация : Audio Video Interleave
Размер файла : 1,29 Гбайт
Продолжительность : 1 ч. 39 м.
Общий поток : 1856 Кбит/сек
Программа кодирования : AVI-Mux GUI 1.17.8.3, Feb 16 201019:42:50
Библиотека кодирования : VirtualDub build 34753/release

Видео
Идентификатор : 0
Формат : MPEG-4 Visual
Профиль формата : Advanced Simple@L5
Параметр BVOP формата : 2
Параметр QPel формата : Нет
Параметр GMC формата : Без точки перехода
Параметр матрицы формата : Default (H.263)
Режим смешивания : Сжатый битовый поток
Идентификатор кодека : XVID
Идентификатор кодека/Подсказка : XviD
Продолжительность : 1 ч. 39 м.
Битрейт : 1654 Кбит/сек
Ширина : 720 пикселей
Высота : 400 пикселей
Соотношение сторон : 16:9
Частота кадров : 23,976 кадра/сек
Цветовое пространство : YUV
Субдискретизация насыщенности : 4:2:0
Битовая глубина : 8 бит
Тип развёртки : Прогрессивная
Метод сжатия : С потерями
Бит/(Пиксели*Кадры) : 0.240
Размер потока : 1,15 Гбайт (89%)
Библиотека кодирования : XviD 64

Аудио
Идентификатор : 1
Формат : MPEG Audio
Версия формата : Version 1
Профиль формата : Layer 3
Идентификатор кодека : 55
Идентификатор кодека/Подсказка : MP3
Продолжительность : 1 ч. 39 м.
Вид битрейта : Постоянный
Битрейт : 192 Кбит/сек
Каналы : 2 канала
Частота : 44,1 КГц
Метод сжатия : С потерями
Размер потока : 137 Мбайт (10%)
Выравнивание : Разделение по промежуткам
Продолжительность промежутка : 42 мс. (1,00 видеокадр)
Время предзагрузки промежутка : 500 мс.
Скриншоты:


Время раздачи: 24/7,
до 5 скачавших.
Protiv.Solntsa.2014.WEB-DLRip.NNM-CLUB.avi.torrent
 Торрент: Платиновая раздача  Зарегистрирован
 
Скачать


Примагнититься
 Зарегистрирован:   21 Янв 2015 20:22:41
 Размер:   1,29 GB  (
 Рейтинг:   4,3 (Голосов: 204)
 Поблагодарили:   1173
 Проверка:   Оформление проверено модератором 21 Янв 2015 20:27:30
Как cкачать  ·  Как раздать  ·  Правильно оформить  ·  Поднять ратио!  

_________________
Правила оформления релизов в разделе «Видео» | Исправил релиз? - напиши об этом в ЛС
ResidentGamer
Стаж: 6 лет 9 мес.
Сообщений: 565
Ratio: 1,584
Поблагодарили: 21
3.94%
Шедевр - к просмотру строго рекомендую.
molchel
Стаж: 7 лет 6 мес.
Сообщений: 1389
Ratio: 22,405
Поблагодарили: 5220
100%
Откуда: Краснодар
russia.gif
ResidentGamer
ну не такой уж и шедевр.
на один раз пойдёт и то только под пиво
catteen
Стаж: 8 лет
Сообщений: 142
Ratio: 7,981
31.5%
kazakhstan.gif
по трейлеру очень напоминает фильм несломленный
welln
Предупреждений: 1
Предупреждений: 1 
Стаж: 11 лет 3 мес.
Сообщений: 795
Ratio: 6,15
1.58%
barbados.gif
Таких трагедий и в мирное время случается немало. Если бы это был фильм про Катынь, я бы согласился, что это "самая страшная"... а про злоключения троих людей в лодке. Занимательно, впечатляет, но не более.
НиваВФ
Стаж: 9 лет
Сообщений: 93
Ratio: 30,316
Раздал: 45,51 TB
Поблагодарили: 7627
100%
Откуда: Россия
russia.gif
Одна из самых страшных историй Второй мировой войны, три пилота американских ВВС вынуждены выживать после крушения самолёта в южной части Тихого Океана.

Оттоно как....если учесть где находится Южная часть Тихого океана...то да страшилка еще та...Интересно с кем они там воевали...???
oregon4
Стаж: 13 лет 7 мес.
Сообщений: 384
Ratio: 13,138
Поблагодарили: 956
100%
russia.gif
Возможно, в этом фильме история, слегка, приукрашена, может в жизни она и вправду тянет на "одну из самых страшных". :подмигивание:

_________________
Сидер предполагает, а Corbina-располагает. (Это не меня нет, это Corbina поломалася.)
K.E.N
Стаж: 7 лет 5 мес.
Сообщений: 4416
Ratio: 138,039
Поблагодарили: 429897
100%
Откуда: Mordor
pirates.png
Цитата:
Одна из самых страшных историй Второй мировой войны
ну,что то явно погорячились
Mindkilla
Стаж: 7 лет 6 мес.
Сообщений: 2681
Ratio: 25,795
100%
Откуда: Amalfi
japan.gif
Пафосное описание, нагоняющее страх. Содержанию немного не соответствует.

НиваВФ писал(а): Перейти к сообщению
если учесть где находится Южная часть Тихого океана... Интересно с кем они там воевали...???

С пингвинами! :D
TrueNikolaich
Стаж: 7 лет 8 мес.
Сообщений: 14
Ratio: 4,009
3.85%
cuba.gif
Mindkilla писал(а): Перейти к сообщению
Пафосное описание, нагоняющее страх. Содержанию немного не соответствует.

НиваВФ писал(а): Перейти к сообщению
если учесть где находится Южная часть Тихого океана... Интересно с кем они там воевали...???

С пингвинами! :D

С пингвинами-исламистами, захватившими месторождения нефти...
Zubov2
Стаж: 8 лет 9 мес.
Сообщений: 554
Ratio: 5,961
Раздал: 6,1 TB
100%
ussr.gif
НиваВФ писал(а): Перейти к сообщению
Интересно с кем они там воевали...???

с японцами
fisherin
Стаж: 8 лет 11 мес.
Сообщений: 180
Ratio: 2,802
100%
Стильные прически после 30+ дней и подкачанные банки без малейших признаков измождения. Наверное, каждый день вылавливали по акуле, занимались аквафитнессом и еще среди них был гениальный стилист, перочинным ножиком делавший аккуратные затылочки и височки.
В случае наличия стилиста недораскрыта тема мужской дружбы.
Real_XZ
Стаж: 10 лет 3 мес.
Сообщений: 235
Ratio: 9,183
100%
russia.gif
Простите, но после этих строчек: "Одна из самых страшных историй Второй мировой войны", ни какого желания смотреть.
yanrev
Стаж: 9 лет 5 мес.
Сообщений: 35
Ratio: 1,859
100%
Откуда: Остров Свободы
cuba.gif
welln писал(а): Перейти к сообщению
Таких трагедий и в мирное время случается немало. Если бы это был фильм про Катынь, я бы согласился, что это "самая страшная"... а про злоключения троих людей в лодке. Занимательно, впечатляет, но не более.

+100
MasterPokemon
Стаж: 8 лет 3 мес.
Сообщений: 139
Ratio: 1,69
100%
Откуда: Череповец
russia.gif
да эт же Драко Малфой едрить
Показать сообщения:   
Начать новую тему   Ответить на тему    Торрент-трекер NNM-Club -> Архив торрентов -> Архив Видео Часовой пояс: GMT + 3
Страницы:  1, 2, 3, 4, 5  След.
Страница 1 из 5