Классический форум-трекер
canvas not supported
Нас вместе: 4 125 454

Против Солнца / Against the Sun (2014) WEB-DL [720p] ATV


 
 
RSS
Начать новую тему   Ответить на тему    Торрент-трекер NNM-Club -> Аудио и Видео -> Зарубежное видео HD для устройств Apple
Автор Сообщение
gekka ®
Стаж: 13 лет 7 мес.
Сообщений: 2123
Ratio: 96,244
Поблагодарили: 132702
100%
Откуда: Москва, Дорогомилово
ussr.gif
Против Солнца / Against the Sun (2014) WEB-DL [720p] ATV

Год выпуска: 2014
Производство: США / © 2013 Rub A Dub Dub Productions, LLC
Жанр: драма, приключения

Режиссер: Брайан Питер Фальк
Сценарий: Брайан Питер Фальк, Марк Дэвид Кигэн
Продюсер: Брайан Питер Фальк, Марк Моран, Луиза Гомес де Силва
Актеры: Том Фелтон, Гаррет Диллахант, Джейк Эйбел, Надя Парра

Описание:
Одна из самых страшных историй Второй мировой войны, три пилота американских ВВС вынуждены выживать после крушения самолёта в южной части Тихого Океана. Имея только небольшой спасательный плот, без еды, воды и вспомогательных материалов, трио должно полагаться на самих себя, чтобы пережить голод, шторма и атаки акул, и привести свой маленький плот в безопасное место.

Перевод: Любительский (одноголосый закадровый)
Вид субтитров: Вшитые отключаемые
Язык субтитров: Английский


Дата мировой премьеры: 23 января 2015
Рейтинг MPAA: PG
Возраст: -

Продолжительность: 01:39:25
Качество: WEB-DL [720p]

Видео: MPEG-4 AVC/H.264, 1280x720 (16:9), 4 151 Kbps, 23.976 fps
Аудио #1: Русский - AAC / 2.0 / 170 Kbps / 48.0 KHz - Любительский (одноголосый закадровый) (datynet) - по переводу (Janetta)
Аудио #2: Русский - AC3 / 2.0 / 192 Kbps / 48.0 KHz - Любительский (одноголосый закадровый) (datynet) - по переводу (Janetta)
Аудио #3: Английский - AAC / 2.0 / 170 Kbps / 48.0 KHz - Оригинальный
Аудио #4: Английский - AC3 / 5.1 / 384 Kbps / 48.0 KHz - Оригинальный
Код:

Sort Name: Against The Sun
XID: Apple:vendor_id:2015-725149
Content ID: 944566067
Copyright: © 2013 Rub A Dub Dub Productions, LLC
ScreenWriters: Брайан Питер Фальк, Марк Дэвид Кигэн
Producers: Брайан Питер Фальк, Марк Моран, Луиза Гомес де Силва
Director: Брайан Питер Фальк
Cast: Tom Felton (Tony Pastula), Garret Dillahunt (Harold Dixon), Jake Abel (Gene Aldrich), Nadia Parra (Frances)Том Фелтон, Гаррет Диллахант, Джейк Эйбел, Надя Парра
Rating: PG
Long Description: Одна из самых страшных историй Второй мировой войны, три пилота американских ВВС вынуждены выживать после крушения самолёта в южной части Тихого Океана. Имея только небольшой спасательный плот, без еды, воды и вспомогательных материалов, трио должно полагаться на самих себя, чтобы пережить голод, шторма и атаки акул, и привести свой маленький плот в безопасное место.
Description: Одна из самых страшных историй Второй мировой войны, три пилота американских ВВС вынуждены выживать после крушения самолёта в южной части Тихого Океана. Имея только небольшой спасательный плот, без еды, воды и вспомогательных материалов, трио должно
Release Date: 2015-01-23T08:00:00Z
Genre: Action & Adventure
Artist: Брайан Питер Фальк
Name: Против солнца
Код:

General
Complete name               : C:\CREATE\264mod1\out\Against the Sun (2014) (HD).m4v
Format                      : MPEG-4
Codec ID                    : M4V
File size                   : 3.53 GiB
Duration                    : 1h 39mn
Overall bit rate mode       : Variable
Overall bit rate            : 5 085 Kbps
Movie name                  : Против солнца
Performer                   : Брайан Питер Фальк
Director                    : Брайан Питер Фальк
Actor                       : Tom Felton (Tony Pastula) / Garret Dillahunt (Harold Dixon) / Jake Abel (Gene Aldrich) / Nadia Parra (Frances)Том Фелтон / Гаррет Диллахант / Джейк Эйбел / Надя Парра
Screenplay by               : Брайан Питер Фальк / Марк Дэвид Кигэн
Producer                    : Брайан Питер Фальк / Марк Моран / Луиза Гомес де Силва
Genre                       : Action & Adventure
ContentType                 : Short Film
Description                 : Одна из самых страшных историй Второй мировой войны, три пилота американских ВВС вынуждены выживать после крушения самолёта в южной части Тихого Океана. Имея только небольшой спасательный плот, без еды, воды и вспомогательных материалов, трио должно
Recorded date               : UTC 2015-01-23 08:00:00
Encoded date                : UTC 2015-01-21 21:32:46
Tagged date                 : UTC 2015-01-21 21:38:33
Copyright                   : © 2013 Rub A Dub Dub Productions, LLC
Cover                       : Yes
ContentRating               : mpaa|PG|200|
Title/Sort                  : Against The Sun
LongDescription             : Одна из самых страшных историй Второй мировой войны, три пилота американских ВВС вынуждены выживать после крушения самолёта в южной части Тихого Океана. Имея только небольшой спасательный плот, без еды, воды и вспомогательных материалов, трио должно полагаться на самих себя, чтобы пережить голод, шторма и атаки акул, и привести свой маленький плот в безопасное место.
HDVideo                     : Yes
AppleStoreCatalogID         : 944566067
Vendor                      : Apple:vendor_id:2015-725149

Video
ID                          : 1
Format                      : AVC
Format/Info                 : Advanced Video Codec
Format profile              : High@L3.1
Format settings, CABAC      : No
Format settings, ReFrames   : 2 frames
Codec ID                    : avc1
Codec ID/Info               : Advanced Video Coding
Duration                    : 1h 39mn
Bit rate                    : 4 151 Kbps
Maximum bit rate            : 13.6 Mbps
Width                       : 1 280 pixels
Height                      : 720 pixels
Display aspect ratio        : 16:9
Frame rate mode             : Constant
Frame rate                  : 23.976 fps
Color space                 : YUV
Chroma subsampling          : 4:2:0
Bit depth                   : 8 bits
Scan type                   : Progressive
Bits/(Pixel*Frame)          : 0.188
Stream size                 : 2.88 GiB (82%)
Title                       : Against the Sun _2014_
Language                    : English
Encoded date                : UTC 2015-01-21 21:32:46
Tagged date                 : UTC 2015-01-21 21:34:16
Color primaries             : BT.709
Transfer characteristics    : BT.709
Matrix coefficients         : BT.709
Color range                 : Limited

Audio #1
ID                          : 2
Format                      : AAC
Format/Info                 : Advanced Audio Codec
Format profile              : LC
Codec ID                    : 40
Duration                    : 1h 39mn
Bit rate mode               : Variable
Bit rate                    : 175 Kbps
Maximum bit rate            : 196 Kbps
Channel(s)                  : 2 channels
Channel positions           : Front: L R
Sampling rate               : 48.0 KHz
Compression mode            : Lossy
Stream size                 : 124 MiB (3%)
Title                       : AAC VO [datynet] / AAC VO [datynet]
Language                    : Russian
Encoded date                : UTC 2015-01-21 21:24:32
Tagged date                 : UTC 2015-01-21 21:34:16

Audio #2
ID                          : 3
Format                      : AC-3
Format/Info                 : Audio Coding 3
Mode extension              : CM (complete main)
Format settings, Endianness : Big
Codec ID                    : ac-3
Duration                    : 1h 39mn
Bit rate mode               : Constant
Bit rate                    : 192 Kbps
Channel(s)                  : 2 channels
Channel positions           : Front: L R
Sampling rate               : 48.0 KHz
Bit depth                   : 16 bits
Compression mode            : Lossy
Stream size                 : 137 MiB (4%)
Title                       : AC3 VO [datynet] / AC3 VO [datynet]
Language                    : Russian
Encoded date                : UTC 2015-01-21 21:34:06
Tagged date                 : UTC 2015-01-21 21:34:16

Audio #3
ID                          : 4
Format                      : AAC
Format/Info                 : Advanced Audio Codec
Format profile              : LC
Codec ID                    : 40
Duration                    : 1h 39mn
Bit rate mode               : Variable
Bit rate                    : 170 Kbps
Maximum bit rate            : 202 Kbps
Channel(s)                  : 2 channels
Channel positions           : Front: L R
Sampling rate               : 48.0 KHz
Compression mode            : Lossy
Stream size                 : 121 MiB (3%)
Title                       : AAC original / AAC original
Language                    : English
Encoded date                : UTC 2015-01-21 21:30:05
Tagged date                 : UTC 2015-01-21 21:34:16

Audio #4
ID                          : 5
Format                      : AC-3
Format/Info                 : Audio Coding 3
Mode extension              : CM (complete main)
Format settings, Endianness : Big
Codec ID                    : ac-3
Duration                    : 1h 39mn
Bit rate mode               : Constant
Bit rate                    : 384 Kbps
Channel(s)                  : 6 channels
Channel positions           : Front: L C R, Side: L R, LFE
Sampling rate               : 48.0 KHz
Bit depth                   : 16 bits
Compression mode            : Lossy
Stream size                 : 273 MiB (8%)
Title                       : AC3 original / AC3 original
Language                    : English
Encoded date                : UTC 2015-01-21 21:34:12
Tagged date                 : UTC 2015-01-21 21:34:16

Text
ID                          : 6
Format                      : Timed Text
Muxing mode                 : sbtl
Codec ID                    : tx3g
Duration                    : 1h 32mn
Bit rate mode               : Variable
Bit rate                    : 61 bps
Stream size                 : 41.3 KiB (0%)
Language                    : English
Encoded date                : UTC 2015-01-21 21:34:16
Tagged date                 : UTC 2015-01-21 21:34:16

Menu
ID                          : 7
Codec ID                    : text
Duration                    : 1h 39mn
Encoded date                : UTC 2015-01-21 21:35:07
Tagged date                 : UTC 2015-01-21 21:35:07
00:00:00.000                : Chapter 1
00:13:08.000                : Chapter 2
00:24:00.000                : Chapter 3
00:33:30.000                : Chapter 4
00:43:33.000                : Chapter 5
00:49:44.000                : Chapter 6
01:00:16.000                : Chapter 7
01:13:50.000                : Chapter 8
01:21:50.000                : Chapter 9
01:34:36.000                : End Credits
Bit rate mode               : VBR
Скриншоты:


Время раздачи: 24/7, до 5 скачавших.
[NNM-Club.me]_Against the Sun (2014) (HD).torrent
 Торрент: Платиновая раздача  Зарегистрирован
 
Скачать


Примагнититься
 Зарегистрирован:   22 Янв 2015 00:41:24
 Размер:   3,53 GB  (
 Рейтинг:   4,6 (Голосов: 29)
 Поблагодарили:   118
 Проверка:   Оформление проверено модератором 22 Янв 2015 08:20:57
Как cкачать  ·  Как раздать  ·  Правильно оформить  ·  Поднять ратио!  

_________________
My make-up may be flaking, but my smile still stays on.
vovka036
Стаж: 10 лет
Сообщений: 1465
Ratio: 0,75
96.69%
russia.gif
Хороший фильм.
Bogatozajivy
Стаж: 9 лет 6 мес.
Сообщений: 100
Ratio: 3,562
100%
poland.gif
Если нечего смотреть, то разок можно глянуть....
И быстро забыть

_________________
Обожаю гололёд...4 шпагата, 2 сальто, 5 ласточек и я на работе
ozzymama
Стаж: 6 лет 8 мес.
Сообщений: 2
Ratio: 0,22
0%
Если у кого-либо есть возможность,-пораздавайте, плизззз... Оч посмотреть хочется. =)
Показать сообщения:   
Начать новую тему   Ответить на тему    Торрент-трекер NNM-Club -> Аудио и Видео -> Зарубежное видео HD для устройств Apple Часовой пояс: GMT + 3
Страница 1 из 1