Классический форум-трекер
canvas not supported
Нас вместе: 4 076 659

Гарри Поттер (Антология) / Harry Potter (Complete collection) (2001,2002,2004,2005,2007,2009,2010,2011) HDRip [H.264] [MP4|640x272]


 
 
RSS
Начать новую тему   Ответить на тему    Торрент-трекер NNM-Club -> Мультимедиа и прочее -> Мобильное Видео
Автор Сообщение
alien.09 ®
Стаж: 8 лет 6 мес.
Сообщений: 611
Ratio: 280,791
Поблагодарили: 24237
100%
ussr.gif
Гарри Поттер / Harry Potter (2001-2011) HDRip
Производство: Великобритания, Германия, США
Жанр: Фэнтези, Приключения, Семейный
Описание фильма:
Серия фильмов о Гарри Поттере — серия англо-американских фильмов, основанных на романах о Гарри Поттере английской писательницы Д. К. Роулинг. Серия выпущена компанией Warner Bros. и состоит из 8 фильмов в жанре фэнтези, начиная с Гарри Поттер и философский камень (2001) и заканчивая Гарри Поттер и Дары Смерти: часть 2 (2011). Франшиза занимает 1 место в списке самых прибыльных серий фильмов с 7,7 млрд $ мировой прибыли. Все фильмы находятся в списке 50 самых кассовых фильмов в мире за всю историю кинематографа.
Продолжительность: 02:32:22; 02:40:56; 02:21:42; 02:37:05; 02:18:14; 02:33:31; 02:26:05; 02:10:27
Качество видео: HDRip
Перевод: Дублированный
Видеокодек: MPEG-4 AVC/H.264
Битрейт видео: ~679 Kbps
Размер кадра: 640х272
Аудиокодек: AAC
Битрейт аудио: 128 Kbps
Аудио #1: AAC, 2 канала, ~128 Кбит/сек - русский (дублированный)
Аудио #2: AAC, 2 канала, ~128 Кбит/сек - английский (оригинальный)
Гарри Поттер и Философский камень (Harry Potter and the Sorcerer's Stone) (2001) HDRip
Жaнр: Фэнтези, Приключения, Семейный
Прoизводство: Велиобритания, США
Описaние фильма:
Жизнь десятилетнего Гарри Поттера нельзя назвать сладкой: его родители умерли, едва ему исполнился год, а от дяди и тётки, взявших сироту на воспитание, достаются лишь тычки да подзатыльники. Но в одиннадцатый день рождения Гарри всё меняется. Странный гость, неожиданно появившийся на пороге, приносит письмо, из которого мальчик узнаёт, что на самом деле он волшебник и принят в Хогвартс — школу магии. А уже через пару недель Гарри будет мчаться в поезде Хогвартс-экспресс навстречу новой жизни, где его ждут невероятные приключения, верные друзья и самое главное — ключ к разгадке тайны смерти его родителей.
Рeжиссер: Крис Коламбус
Актeры: Дэниэл Рэдклифф, Руперт Гринт, Эмма Уотсон, Том Фелтон, Ричард Харрис, Мэгги Смит, Робби Колтрейн, Саундерс Триплетс, Фиона Шоу, Гарри Меллинг
Продолжитeльность: 02:32:22
Качество видео: HDRip
Перевод: Дублированный

Дата мировой премьеры: 4 ноября 2001
Дата российской премьеры: 21 марта 2002, «Каро-Премьер»
Дата выхода DVD релиза: 28 августа 2002, «Мост-Видео»,
Видеокодек: MPEG-4 AVC/H.264
Битрейт видео: ~679 Kbps
Размер кадра: 640х272
Аудио #1: AAC, 2 канала, ~128 Кбит/сек - русский (дублированный)
Аудио #2: AAC, 2 канала, ~128 Кбит/сек - английский (оригинальный)
General
Complete name : F:\Гарри Поттер (2001-2011) Коллекция\01 Гарри Поттер и философский камень (2001).mp4
Format : MPEG-4
Format profile : Base Media
Codec ID : isom
File size : 1.01 GiB
Duration : 2h 32mn
Overall bit rate mode : Variable
Overall bit rate : 946 Kbps
Movie name : Harry Potter and the Sorcerer's Stone (2001) [NoNaMe Club]
ContentType : Short Film
Encoded date : UTC 2015-01-29 21:44:32
Tagged date : UTC 2015-01-29 21:45:17
Writing application : MkvToMp4 [www.mkvtomp4.ru] version: 0.224 (x64)
Comment : [rip by Alien.09]

Video
ID : 1
Format : AVC
Format/Info : Advanced Video Codec
Format profile : Main@L4.1
Format settings, CABAC : Yes
Format settings, ReFrames : 3 frames
Codec ID : avc1
Codec ID/Info : Advanced Video Coding
Duration : 2h 32mn
Bit rate : 679 Kbps
Maximum bit rate : 3 778 Kbps
Width : 640 pixels
Height : 272 pixels
Display aspect ratio : 2.40:1
Frame rate mode : Constant
Frame rate : 23.976 fps
Color space : YUV
Chroma subsampling : 4:2:0
Bit depth : 8 bits
Scan type : Progressive
Bits/(Pixel*Frame) : 0.163
Stream size : 740 MiB (72%)
Writing library : x264 core 125 r2200M 999b753
Encoding settings : cabac=1 / ref=3 / deblock=1:-1:-1 / analyse=0x1:0x131 / me=hex / subme=7 / psy=1 / psy_rd=1.00:0.15 / mixed_ref=1 / me_range=16 / chroma_me=1 / trellis=1 / 8x8dct=0 / cqm=0 / deadzone=21,11 / fast_pskip=1 / chroma_qp_offset=-3 / threads=8 / lookahead_threads=1 / sliced_threads=0 / nr=0 / decimate=1 / interlaced=0 / bluray_compat=0 / constrained_intra=0 / bframes=3 / b_pyramid=0 / b_adapt=2 / b_bias=0 / direct=3 / weightb=1 / open_gop=0 / weightp=0 / keyint=230 / keyint_min=23 / scenecut=40 / intra_refresh=0 / rc_lookahead=40 / rc=2pass / mbtree=1 / bitrate=679 / ratetol=1.0 / qcomp=0.60 / qpmin=10 / qpmax=51 / qpstep=4 / cplxblur=20.0 / qblur=0.5 / vbv_maxrate=5000 / vbv_bufsize=1835 / nal_hrd=none / ip_ratio=1.40 / aq=1:1.00
Language : English
Encoded date : UTC 2015-01-29 21:44:32
Tagged date : UTC 2015-01-29 21:44:50

Audio #1
ID : 2
Format : AAC
Format/Info : Advanced Audio Codec
Format profile : LC
Codec ID : 40
Duration : 2h 32mn
Bit rate mode : Variable
Bit rate : 128 Kbps
Maximum bit rate : 170 Kbps
Channel(s) : 2 channels
Channel positions : Front: L R
Sampling rate : 48.0 KHz
Compression mode : Lossy
Stream size : 139 MiB (14%)
Language : Russian
Encoded date : UTC 2015-01-29 21:44:42
Tagged date : UTC 2015-01-29 21:44:50

Audio #2
ID : 3
Format : AAC
Format/Info : Advanced Audio Codec
Format profile : LC
Codec ID : 40
Duration : 2h 32mn
Bit rate mode : Variable
Bit rate : 128 Kbps
Maximum bit rate : 163 Kbps
Channel(s) : 2 channels
Channel positions : Front: L R
Sampling rate : 48.0 KHz
Compression mode : Lossy
Stream size : 139 MiB (14%)
Language : English
Encoded date : UTC 2015-01-29 21:44:46
Tagged date : UTC 2015-01-29 21:44:50
Скриншоты:


Гарри Поттер и тайная комната (Harry Potter and the Chamber of Secrets) (2002) HDRip
Жанр: Фэнтези, Приключения, Семейный
Производство: Велиобритания, Германия, США
Описaниe фильма:
Гарри Поттер переходит на второй курс Школы чародейства и волшебства Хогвартс. Эльф Добби предупреждает Гарри об опасности, которая поджидает его там, и просит больше не возвращаться в школу.

Юный волшебник не следует совету эльфа и становится свидетелем таинственных событий, разворачивающихся в Хогвартсе. Вскоре Гарри и его друзья узнают о существовании Тайной Комнаты и сталкиваются с новыми приключениями, пытаясь победить темные силы.
Режиссер: Крис Коламбус
Актеры: Дэниэл Рэдклифф, Руперт Гринт, Эмма Уотсон, Том Фелтон, Джейсон Айзекс, Робби Колтрейн, Кеннет Брэна, Алан Рикман, Ричард Харрис, Мэгги Смит
Продолжитeльность: 02:40:56
Качество видео: HDRip
Перевод: Дублированный

Дата мировой премьеры: 3 ноября 2002
Дата российской премьеры: 26 декабря 2002, «Каро-Премьер»
Дата выхода DVD релиза: апреля 2003, «Premier Digital»
Видеокодек: MPEG-4 AVC/H.264
Битрейт видео: ~679 Kbps
Размер кадра: 640х272
Аудио #1: AAC, 2 канала, ~128 Кбит/сек - русский (дублированный)
Аудио #2: AAC, 2 канала, ~128 Кбит/сек - английский (оригинальный)
General
Complete name : F:\Гарри Поттер (2001-2011) Коллекция\02 Гарри Поттер и тайная комната (2002).mp4
Format : MPEG-4
Format profile : Base Media
Codec ID : isom
File size : 1.06 GiB
Duration : 2h 40mn
Overall bit rate mode : Variable
Overall bit rate : 946 Kbps
Movie name : Harry Potter and the Chamber of Secrets (2002) [NoNaMe Club]
ContentType : Short Film
Encoded date : UTC 2015-01-29 21:47:36
Tagged date : UTC 2015-01-29 21:48:47
Writing application : MkvToMp4 [www.mkvtomp4.ru] version: 0.224 (x64)
Comment : [rip by Alien.09]

Video
ID : 1
Format : AVC
Format/Info : Advanced Video Codec
Format profile : Main@L4.1
Format settings, CABAC : Yes
Format settings, ReFrames : 3 frames
Codec ID : avc1
Codec ID/Info : Advanced Video Coding
Duration : 2h 40mn
Bit rate : 679 Kbps
Maximum bit rate : 4 023 Kbps
Width : 640 pixels
Height : 272 pixels
Display aspect ratio : 2.40:1
Frame rate mode : Constant
Frame rate : 23.976 fps
Color space : YUV
Chroma subsampling : 4:2:0
Bit depth : 8 bits
Scan type : Progressive
Bits/(Pixel*Frame) : 0.163
Stream size : 782 MiB (72%)
Writing library : x264 core 125 r2200M 999b753
Encoding settings : cabac=1 / ref=3 / deblock=1:-1:-1 / analyse=0x1:0x131 / me=hex / subme=7 / psy=1 / psy_rd=1.00:0.15 / mixed_ref=1 / me_range=16 / chroma_me=1 / trellis=1 / 8x8dct=0 / cqm=0 / deadzone=21,11 / fast_pskip=1 / chroma_qp_offset=-3 / threads=8 / lookahead_threads=1 / sliced_threads=0 / nr=0 / decimate=1 / interlaced=0 / bluray_compat=0 / constrained_intra=0 / bframes=3 / b_pyramid=0 / b_adapt=2 / b_bias=0 / direct=3 / weightb=1 / open_gop=0 / weightp=0 / keyint=230 / keyint_min=23 / scenecut=40 / intra_refresh=0 / rc_lookahead=40 / rc=2pass / mbtree=1 / bitrate=679 / ratetol=1.0 / qcomp=0.60 / qpmin=10 / qpmax=51 / qpstep=4 / cplxblur=20.0 / qblur=0.5 / vbv_maxrate=5000 / vbv_bufsize=1835 / nal_hrd=none / ip_ratio=1.40 / aq=1:1.00
Language : English
Encoded date : UTC 2015-01-29 21:47:36
Tagged date : UTC 2015-01-29 21:47:54

Audio #1
ID : 2
Format : AAC
Format/Info : Advanced Audio Codec
Format profile : LC
Codec ID : 40
Duration : 2h 40mn
Bit rate mode : Variable
Bit rate : 128 Kbps
Maximum bit rate : 169 Kbps
Channel(s) : 2 channels
Channel positions : Front: L R
Sampling rate : 48.0 KHz
Compression mode : Lossy
Stream size : 147 MiB (14%)
Language : Russian
Encoded date : UTC 2015-01-29 21:47:45
Tagged date : UTC 2015-01-29 21:47:54

Audio #2
ID : 3
Format : AAC
Format/Info : Advanced Audio Codec
Format profile : LC
Codec ID : 40
Duration : 2h 40mn
Bit rate mode : Variable
Bit rate : 128 Kbps
Maximum bit rate : 162 Kbps
Channel(s) : 2 channels
Channel positions : Front: L R
Sampling rate : 48.0 KHz
Compression mode : Lossy
Stream size : 147 MiB (14%)
Language : English
Encoded date : UTC 2015-01-29 21:47:49
Tagged date : UTC 2015-01-29 21:47:54
Скриншоты:


Гарри Поттер и узник Азкабана (Harry Potter and the Prisoner of Azkaban) (2004) HDRip
Жанр: Фэнтези, Приключения, Семейный
Производство: Велиобритания, США
Описаниe фильма:
В третьей части экранизации бестселлера о юном волшебнике, полюбившиеся всем герои — Гарри Поттер, Рон и Гермиона — возвращаются уже на третий курс школы чародейства и волшебства «Хогвартс». На этот раз они должны раскрыть тайну узника, сбежавшего из зловещей тюрьмы Азкабан, чье пребывание на воле создает для Гарри смертельную опасность...
Режиссер: Альфонсо Куарон
Актеры: Дэниэл Рэдклифф, Руперт Гринт, Эмма Уотсон, Том Фелтон, Гари Олдман, Дэвид Тьюлис, Майкл Гэмбон, Алан Рикман, Мэгги Смит, Робби Колтрейн
Продолжитeльность: 02:21:42
Качество видео: HDRip
Перевод: Дублированный

Дата мировой премьеры: 31 мая 2004
Дата российской премьеры: 3 июня 2004, «Каро-Премьер»
Дата выхода DVD релиза: 16 сентября 2004, «Premier Digital»
Видеокодек: MPEG-4 AVC/H.264
Битрейт видео: ~679 Kbps
Размер кадра: 640х272
Аудио #1: AAC, 2 канала, ~128 Кбит/сек - русский (дублированный)
Аудио #2: AAC, 2 канала, ~128 Кбит/сек - английский (оригинальный)
General
Complete name : F:\Гарри Поттер (2001-2011) Коллекция\03 Гарри Поттер и узник Азкабана (2004).mp4
Format : MPEG-4
Format profile : Base Media
Codec ID : isom
File size : 959 MiB
Duration : 2h 21mn
Overall bit rate mode : Variable
Overall bit rate : 946 Kbps
Movie name : Harry Potter and the Prisoner of Azkaban (2004) [NoNaMe Club]
ContentType : Short Film
Encoded date : UTC 2015-01-29 21:51:04
Tagged date : UTC 2015-01-29 21:52:16
Writing application : MkvToMp4 [www.mkvtomp4.ru] version: 0.224 (x64)
Comment : [rip by Alien.09]

Video
ID : 1
Format : AVC
Format/Info : Advanced Video Codec
Format profile : Main@L4.1
Format settings, CABAC : Yes
Format settings, ReFrames : 3 frames
Codec ID : avc1
Codec ID/Info : Advanced Video Coding
Duration : 2h 21mn
Bit rate : 679 Kbps
Maximum bit rate : 3 149 Kbps
Width : 640 pixels
Height : 272 pixels
Display aspect ratio : 2.40:1
Frame rate mode : Constant
Frame rate : 23.976 fps
Color space : YUV
Chroma subsampling : 4:2:0
Bit depth : 8 bits
Scan type : Progressive
Bits/(Pixel*Frame) : 0.163
Stream size : 688 MiB (72%)
Writing library : x264 core 125 r2200M 999b753
Encoding settings : cabac=1 / ref=3 / deblock=1:-1:-1 / analyse=0x1:0x131 / me=hex / subme=7 / psy=1 / psy_rd=1.00:0.15 / mixed_ref=1 / me_range=16 / chroma_me=1 / trellis=1 / 8x8dct=0 / cqm=0 / deadzone=21,11 / fast_pskip=1 / chroma_qp_offset=-3 / threads=8 / lookahead_threads=1 / sliced_threads=0 / nr=0 / decimate=1 / interlaced=0 / bluray_compat=0 / constrained_intra=0 / bframes=3 / b_pyramid=0 / b_adapt=2 / b_bias=0 / direct=3 / weightb=1 / open_gop=0 / weightp=0 / keyint=230 / keyint_min=23 / scenecut=40 / intra_refresh=0 / rc_lookahead=40 / rc=2pass / mbtree=1 / bitrate=679 / ratetol=1.0 / qcomp=0.60 / qpmin=10 / qpmax=51 / qpstep=4 / cplxblur=20.0 / qblur=0.5 / vbv_maxrate=5000 / vbv_bufsize=1835 / nal_hrd=none / ip_ratio=1.40 / aq=1:1.00
Language : English
Encoded date : UTC 2015-01-29 21:51:04
Tagged date : UTC 2015-01-29 21:51:20

Audio #1
ID : 2
Format : AAC
Format/Info : Advanced Audio Codec
Format profile : LC
Codec ID : 40
Duration : 2h 21mn
Bit rate mode : Variable
Bit rate : 128 Kbps
Maximum bit rate : 254 Kbps
Channel(s) : 2 channels
Channel positions : Front: L R
Sampling rate : 48.0 KHz
Compression mode : Lossy
Stream size : 130 MiB (14%)
Language : Russian
Encoded date : UTC 2015-01-29 21:51:12
Tagged date : UTC 2015-01-29 21:51:20

Audio #2
ID : 3
Format : AAC
Format/Info : Advanced Audio Codec
Format profile : LC
Codec ID : 40
Duration : 2h 21mn
Bit rate mode : Variable
Bit rate : 128 Kbps
Maximum bit rate : 190 Kbps
Channel(s) : 2 channels
Channel positions : Front: L R
Sampling rate : 48.0 KHz
Compression mode : Lossy
Stream size : 130 MiB (14%)
Language : English
Encoded date : UTC 2015-01-29 21:51:16
Tagged date : UTC 2015-01-29 21:51:20
Скриншоты:


Гарри Поттер и кубок огня (Harry Potter and the Goblet of Fire) (2005) HDRip
Жанр: Фэнтези, Приключения, Семейный
Производство: Велиобритания, США
Описаниe фильма:
Гарри Поттер, Рон и Гермиона возвращаются на четвертый курс школы чародейства и волшебства «Хогвартс». При таинственных обстоятельствах Гарри отобран в число участников опасного соревнования — Турнира Трех Волшебников, однако проблема в том, что все его соперники — намного старше и сильнее.

К тому же, знаки указывают на возвращение Лорда Волдеморта. Вскоре Гарри предстоит побороться не только за победу в соревновании, но и, прежде всего, за свою жизнь...
Режиссер: Майк Ньюэлл
Актеры: Дэниэл Рэдклифф, Руперт Гринт, Эмма Уотсон, Роберт Паттинсон, Рэйф Файнс, Брендан Глисон, Алан Рикман, Майкл Гэмбон, Робби Колтрейн, Мэгги Смит
Продолжитeльность: 02:37:05
Качество видео: HDRip
Перевод: Дублированный

Дата мировой премьеры: 6 ноября 2005,
Дата российской премьеры: 22 декабря 2005, «Каро-Премьер»
Дата выхода DVD релиза: 23 июня 2009, «Юниверсал Пикчерс Рус»
Видеокодек: MPEG-4 AVC/H.264
Битрейт видео: ~679 Kbps
Размер кадра: 640х272
Аудио #1: AAC, 2 канала, ~128 Кбит/сек - русский (дублированный)
Аудио #2: AAC, 2 канала, ~128 Кбит/сек - английский (оригинальный)
General
Complete name : F:\Гарри Поттер (2001-2011) Коллекция\04 Гарри Поттер и кубок огня (2005).mp4
Format : MPEG-4
Format profile : Base Media
Codec ID : isom
File size : 1.04 GiB
Duration : 2h 37mn
Overall bit rate mode : Variable
Overall bit rate : 946 Kbps
Movie name : Harry Potter and the Goblet of Fire (2005) [NoNaMe Club]
ContentType : Short Film
Encoded date : UTC 2015-01-29 21:54:25
Tagged date : UTC 2015-01-29 21:55:45
Writing application : MkvToMp4 [www.mkvtomp4.ru] version: 0.224 (x64)
Comment : [rip by Alien.09]

Video
ID : 1
Format : AVC
Format/Info : Advanced Video Codec
Format profile : Main@L4.1
Format settings, CABAC : Yes
Format settings, ReFrames : 3 frames
Codec ID : avc1
Codec ID/Info : Advanced Video Coding
Duration : 2h 37mn
Bit rate : 679 Kbps
Maximum bit rate : 4 605 Kbps
Width : 640 pixels
Height : 272 pixels
Display aspect ratio : 2.40:1
Frame rate mode : Constant
Frame rate : 23.976 fps
Color space : YUV
Chroma subsampling : 4:2:0
Bit depth : 8 bits
Scan type : Progressive
Bits/(Pixel*Frame) : 0.163
Stream size : 763 MiB (72%)
Writing library : x264 core 125 r2200M 999b753
Encoding settings : cabac=1 / ref=3 / deblock=1:-1:-1 / analyse=0x1:0x131 / me=hex / subme=7 / psy=1 / psy_rd=1.00:0.15 / mixed_ref=1 / me_range=16 / chroma_me=1 / trellis=1 / 8x8dct=0 / cqm=0 / deadzone=21,11 / fast_pskip=1 / chroma_qp_offset=-3 / threads=8 / lookahead_threads=1 / sliced_threads=0 / nr=0 / decimate=1 / interlaced=0 / bluray_compat=0 / constrained_intra=0 / bframes=3 / b_pyramid=0 / b_adapt=2 / b_bias=0 / direct=3 / weightb=1 / open_gop=0 / weightp=0 / keyint=230 / keyint_min=23 / scenecut=40 / intra_refresh=0 / rc_lookahead=40 / rc=2pass / mbtree=1 / bitrate=679 / ratetol=1.0 / qcomp=0.60 / qpmin=10 / qpmax=51 / qpstep=4 / cplxblur=20.0 / qblur=0.5 / vbv_maxrate=5000 / vbv_bufsize=1835 / nal_hrd=none / ip_ratio=1.40 / aq=1:1.00
Language : English
Encoded date : UTC 2015-01-29 21:54:25
Tagged date : UTC 2015-01-29 21:54:42

Audio #1
ID : 2
Format : AAC
Format/Info : Advanced Audio Codec
Format profile : LC
Codec ID : 40
Duration : 2h 37mn
Bit rate mode : Variable
Bit rate : 128 Kbps
Maximum bit rate : 192 Kbps
Channel(s) : 2 channels
Channel positions : Front: L R
Sampling rate : 48.0 KHz
Compression mode : Lossy
Stream size : 144 MiB (14%)
Language : Russian
Encoded date : UTC 2015-01-29 21:54:33
Tagged date : UTC 2015-01-29 21:54:42

Audio #2
ID : 3
Format : AAC
Format/Info : Advanced Audio Codec
Format profile : LC
Codec ID : 40
Duration : 2h 37mn
Bit rate mode : Variable
Bit rate : 128 Kbps
Maximum bit rate : 159 Kbps
Channel(s) : 2 channels
Channel positions : Front: L R
Sampling rate : 48.0 KHz
Compression mode : Lossy
Stream size : 144 MiB (14%)
Language : English
Encoded date : UTC 2015-01-29 21:54:38
Tagged date : UTC 2015-01-29 21:54:42
Скриншоты:


Гарри Поттер и орден Феникса (Harry Potter and the Order of the Phoenix) (2007) HDRip
Жанр: Фэнтези, Приключения, Семейный
Производство: Велиобритания, США
Описаниe фильма:
Гарри проводит свой пятый год обучения в школе Хогвартс и обнаруживает, что многие из членов волшебного сообщества отрицают сам факт недавнего состязания юного волшебника с воплощением вселенского зла Волдемортом, делая вид, что не имеют ни малейшего представления о том, что злодей вернулся.

Опасаясь, что почтенный глава Хогвартса Альбус Дамблдор распространяет лживые слухи о возвращении Волдеморта, стремясь подорвать авторитет Министра Магии Корнелиуса Фаджа и в дальнейшем занять его место, Корнелиус назначает нового профессора защиты от темных искусств, который должен будет пристально следить за Дамблдором и студентами Хогвартса.

Но одобренный министерством курс лекций по защитной магии профессора Долорес Амбридж оказывается на практике абсолютно бесполезным — юные волшебники просто неспособны противостоять действию темных сил, угрожающих им и всему волшебному сообществу. И тогда, по настоянию своих друзей, Гермионы и Рона, Гарри берет инициативу в свои руки.

Тайно встречаясь с небольшой группой студентов, называющей себя Отрядом Дамблдора, Гарри обучает их самозащите от темных сил, готовя отважных волшебников к необычной схватке, которая ждет их впереди.
Режиссер: Дэвид Йэтс
Актеры: Дэниэл Рэдклифф, Руперт Гринт, Эмма Уотсон, Гари Олдман, Рэйф Файнс, Майкл Гэмбон, Джейсон Айзекс, Имелда Стонтон, Эванна Линч, Мэгги Смит
Продолжитeльность: 02:18:14
Качество видео: HDRip
Перевод: Дублированный

Дата мировой премьеры: 28 июня 2007
Дата российской премьеры: 19 июля 2007, «Каро-Премьер»
Дата выхода DVD релиза: 23 июня 2009, «Юниверсал Пикчерс Рус»
Видеокодек: MPEG-4 AVC/H.264
Битрейт видео: ~679 Kbps
Размер кадра: 640х272
Аудио #1: AAC, 2 канала, ~128 Кбит/сек - русский (дублированный)
Аудио #2: AAC, 2 канала, ~128 Кбит/сек - английский (оригинальный)
General
Complete name : F:\Гарри Поттер (2001-2011) Коллекция\05 Гарри Поттер и орден Феникса (2007).mp4
Format : MPEG-4
Format profile : Base Media
Codec ID : isom
File size : 935 MiB
Duration : 2h 18mn
Overall bit rate mode : Variable
Overall bit rate : 946 Kbps
Movie name : Harry Potter and the Order of the Phoenix (2007) [NoNaMe Club]
ContentType : Short Film
Encoded date : UTC 2015-01-29 21:57:44
Tagged date : UTC 2015-01-29 21:58:57
Writing application : MkvToMp4 [www.mkvtomp4.ru] version: 0.224 (x64)
Comment : [rip by Alien.09]

Video
ID : 1
Format : AVC
Format/Info : Advanced Video Codec
Format profile : Main@L4.1
Format settings, CABAC : Yes
Format settings, ReFrames : 3 frames
Codec ID : avc1
Codec ID/Info : Advanced Video Coding
Duration : 2h 18mn
Bit rate : 679 Kbps
Maximum bit rate : 5 166 Kbps
Width : 640 pixels
Height : 272 pixels
Display aspect ratio : 2.40:1
Frame rate mode : Constant
Frame rate : 23.976 fps
Color space : YUV
Chroma subsampling : 4:2:0
Bit depth : 8 bits
Scan type : Progressive
Bits/(Pixel*Frame) : 0.163
Stream size : 671 MiB (72%)
Writing library : x264 core 125 r2200M 999b753
Encoding settings : cabac=1 / ref=3 / deblock=1:-1:-1 / analyse=0x1:0x131 / me=hex / subme=7 / psy=1 / psy_rd=1.00:0.15 / mixed_ref=1 / me_range=16 / chroma_me=1 / trellis=1 / 8x8dct=0 / cqm=0 / deadzone=21,11 / fast_pskip=1 / chroma_qp_offset=-3 / threads=8 / lookahead_threads=1 / sliced_threads=0 / nr=0 / decimate=1 / interlaced=0 / bluray_compat=0 / constrained_intra=0 / bframes=3 / b_pyramid=0 / b_adapt=2 / b_bias=0 / direct=3 / weightb=1 / open_gop=0 / weightp=0 / keyint=230 / keyint_min=23 / scenecut=40 / intra_refresh=0 / rc_lookahead=40 / rc=2pass / mbtree=1 / bitrate=679 / ratetol=1.0 / qcomp=0.60 / qpmin=10 / qpmax=51 / qpstep=4 / cplxblur=20.0 / qblur=0.5 / vbv_maxrate=5000 / vbv_bufsize=1835 / nal_hrd=none / ip_ratio=1.40 / aq=1:1.00
Language : English
Encoded date : UTC 2015-01-29 21:57:44
Tagged date : UTC 2015-01-29 21:57:59

Audio #1
ID : 2
Format : AAC
Format/Info : Advanced Audio Codec
Format profile : LC
Codec ID : 40
Duration : 2h 18mn
Bit rate mode : Variable
Bit rate : 128 Kbps
Maximum bit rate : 192 Kbps
Channel(s) : 2 channels
Channel positions : Front: L R
Sampling rate : 48.0 KHz
Compression mode : Lossy
Stream size : 127 MiB (14%)
Language : Russian
Encoded date : UTC 2015-01-29 21:57:51
Tagged date : UTC 2015-01-29 21:57:59

Audio #2
ID : 3
Format : AAC
Format/Info : Advanced Audio Codec
Format profile : LC
Codec ID : 40
Duration : 2h 18mn
Bit rate mode : Variable
Bit rate : 128 Kbps
Maximum bit rate : 173 Kbps
Channel(s) : 2 channels
Channel positions : Front: L R
Sampling rate : 48.0 KHz
Compression mode : Lossy
Stream size : 127 MiB (14%)
Language : English
Encoded date : UTC 2015-01-29 21:57:55
Tagged date : UTC 2015-01-29 21:57:59
Скриншоты:


Гарри Поттер и Принц-полукровка (Harry Potter and the Half-Blood Prince) (2009) HDRip
Жанр: Фэнтези, Приключения, Семейный
Производство: США
Описаниe фильма:
Теперь не только мир волшебников, но и мир маглов ощущает на себе все возрастающую силу Волан-де-Морта, а Хогвартс уже никак не назовешь надежным убежищем, каким он был раньше. Гарри подозревает, что в самом замке затаилась некая опасность, но Дамблдор больше сосредоточен на том, чтобы подготовить его к финальной схватке, которая, как он знает, уже не за горами. Вместе они пытаются разгадать секрет бессмертия Волан-де-Морта, а для этого Дамблдор приглашает на должность преподавателя по зельеварению своего старинного друга и коллегу — профессора Горация Слизнорта, который обожает устраивать вечеринки для избранных и гордится своими обширными связями в высших кругах. Но этот бонвиван и не подозревает, что как раз от него Дамблдор надеется заполучить самую важную информацию о крестражах.

Тем временем учеников атакуют самые разные враги, а подростковые эмоции хлещут через край. Гарри начинает понимать, что становится все более неравнодушным к Джинни, однако, и Дин Томас тоже. А Лаванда Браун вбила себе в голову, что Рон — тот самый единственный, которого она ждет, да вот только не учла волшебного эффекта шоколадных конфет Ромильды Вейн! Ну и, наконец, Гермиона пылает жгучей ревностью, но старается не показывать своих чувств. Пока романтические отношения расцветают, лишь один ученик остается в стороне. Он твердо намерен оставить свою метку, темную метку. Любовь витает в воздухе, но впереди ждет беда, и Хогвартс, возможно, уже никогда не будет прежним.
Режиссер: Дэвид Йэтс
Актеры: Дэниэл Рэдклифф, Руперт Гринт, Эмма Уотсон, Джим Броудбент, Эларика Галлахер, Робби Колтрейн, Майкл Гэмбон, Мэгги Смит, Алан Рикман, Бонни Райт
Продолжитeльность: 02:33:31
Качество видео: HDRip
Перевод: Дублированный

Дата мировой премьеры: 15 июля 2009
Дата российской премьеры: 16 июля 2009, «Каро-Премьер»
Дата выхода DVD релиза: 17 ноября 2009, «Юниверсал Пикчерс Рус»
Видеокодек: MPEG-4 AVC/H.264
Битрейт видео: ~679 Kbps
Размер кадра: 640х272
Аудио #1: AAC, 2 канала, ~128 Кбит/сек - русский (дублированный)
Аудио #2: AAC, 2 канала, ~128 Кбит/сек - английский (оригинальный)
General
Complete name : F:\Гарри Поттер (2001-2011) Коллекция\06 Гарри Поттер и Принц-полукровка (2009).mp4
Format : MPEG-4
Format profile : Base Media
Codec ID : isom
File size : 1.01 GiB
Duration : 2h 33mn
Overall bit rate mode : Variable
Overall bit rate : 945 Kbps
Movie name : Harry Potter and the Half-Blood Prince (2009) [NoNaMe Club]
ContentType : Short Film
Encoded date : UTC 2015-01-29 22:00:52
Tagged date : UTC 2015-01-29 22:02:09
Writing application : MkvToMp4 [www.mkvtomp4.ru] version: 0.224 (x64)
Comment : [rip by Alien.09]

Video
ID : 1
Format : AVC
Format/Info : Advanced Video Codec
Format profile : Main@L4.1
Format settings, CABAC : Yes
Format settings, ReFrames : 3 frames
Codec ID : avc1
Codec ID/Info : Advanced Video Coding
Duration : 2h 33mn
Bit rate : 679 Kbps
Maximum bit rate : 4 090 Kbps
Width : 640 pixels
Height : 272 pixels
Display aspect ratio : 2.40:1
Frame rate mode : Constant
Frame rate : 23.976 fps
Color space : YUV
Chroma subsampling : 4:2:0
Bit depth : 8 bits
Scan type : Progressive
Bits/(Pixel*Frame) : 0.163
Stream size : 746 MiB (72%)
Writing library : x264 core 125 r2200M 999b753
Encoding settings : cabac=1 / ref=3 / deblock=1:-1:-1 / analyse=0x1:0x131 / me=hex / subme=7 / psy=1 / psy_rd=1.00:0.15 / mixed_ref=1 / me_range=16 / chroma_me=1 / trellis=1 / 8x8dct=0 / cqm=0 / deadzone=21,11 / fast_pskip=1 / chroma_qp_offset=-3 / threads=8 / lookahead_threads=1 / sliced_threads=0 / nr=0 / decimate=1 / interlaced=0 / bluray_compat=0 / constrained_intra=0 / bframes=3 / b_pyramid=0 / b_adapt=2 / b_bias=0 / direct=3 / weightb=1 / open_gop=0 / weightp=0 / keyint=230 / keyint_min=23 / scenecut=40 / intra_refresh=0 / rc_lookahead=40 / rc=2pass / mbtree=1 / bitrate=679 / ratetol=1.0 / qcomp=0.60 / qpmin=10 / qpmax=51 / qpstep=4 / cplxblur=20.0 / qblur=0.5 / vbv_maxrate=5000 / vbv_bufsize=1835 / nal_hrd=none / ip_ratio=1.40 / aq=1:1.00
Language : English
Encoded date : UTC 2015-01-29 22:00:52
Tagged date : UTC 2015-01-29 22:01:09

Audio #1
ID : 2
Format : AAC
Format/Info : Advanced Audio Codec
Format profile : LC
Codec ID : 40
Duration : 2h 33mn
Bit rate mode : Variable
Bit rate : 128 Kbps
Maximum bit rate : 164 Kbps
Channel(s) : 2 channels
Channel positions : Front: L R
Sampling rate : 48.0 KHz
Compression mode : Lossy
Stream size : 140 MiB (14%)
Language : Russian
Encoded date : UTC 2015-01-29 22:01:00
Tagged date : UTC 2015-01-29 22:01:09

Audio #2
ID : 3
Format : AAC
Format/Info : Advanced Audio Codec
Format profile : LC
Codec ID : 40
Duration : 2h 33mn
Bit rate mode : Variable
Bit rate : 128 Kbps
Maximum bit rate : 196 Kbps
Channel(s) : 2 channels
Channel positions : Front: L R
Sampling rate : 48.0 KHz
Compression mode : Lossy
Stream size : 140 MiB (14%)
Language : English
Encoded date : UTC 2015-01-29 22:01:05
Tagged date : UTC 2015-01-29 22:01:09
Скриншоты:


Гарри Поттер и Дары смерти: Часть 1 (Harry Potter and the Deathly Hallows: Part 1) (2010) HDRip
Жанр: Фэнтези, Приключения, Семейный
Производство: Велиобритания, США
Описаниe фильма:
Гарри Поттера ждёт самое страшное испытание в жизни — смертельная схватка с Волан-де-Мортом. Ждать помощи не от кого — Гарри одинок, как никогда… Друзья и враги Гарри предстают в совершенно неожиданном свете. Граница между Добром и Злом становится всё призрачнее
Режиссер: Дэвид Йэтс
Актеры: Дэниэл Рэдклифф, Руперт Гринт, Эмма Уотсон, Том Фелтон, Бонни Райт, Алан Рикман, Рэйф Файнс, Хелена Бонем Картер, Майкл Гэмбон, Брендан Глисон
Продолжитeльность: 02:26:05
Качество видео: HDRip
Перевод: Дублированный

Дата мировой премьеры: 11 ноября 2010
Дата российской премьеры: 19 ноября 2010, «Каро-Премьер»
Дата выхода DVD релиза: 14 апреля 2011, «CP-Digital»
Видеокодек: MPEG-4 AVC/H.264
Битрейт видео: ~679 Kbps
Размер кадра: 640х272
Аудио #1: AAC, 2 канала, ~128 Кбит/сек - русский (дублированный)
Аудио #2: AAC, 2 канала, ~128 Кбит/сек - английский (оригинальный)
General
Complete name : F:\Гарри Поттер (2001-2011) Коллекция\07 Гарри Поттер и дары смерти. Часть 1 (2010).mp4
Format : MPEG-4
Format profile : Base Media
Codec ID : isom
File size : 988 MiB
Duration : 2h 26mn
Overall bit rate mode : Variable
Overall bit rate : 946 Kbps
Movie name : Harry Potter and the Deathly Hallows: Part 1 (2010) [NoNaMe Club]
ContentType : Short Film
Encoded date : UTC 2015-01-29 04:54:01
Tagged date : UTC 2015-01-29 04:54:45
Writing application : MkvToMp4 [www.mkvtomp4.ru] version: 0.224 (x64)
Comment : [rip by Alien.09]

Video
ID : 1
Format : AVC
Format/Info : Advanced Video Codec
Format profile : Main@L4.1
Format settings, CABAC : Yes
Format settings, ReFrames : 3 frames
Codec ID : avc1
Codec ID/Info : Advanced Video Coding
Duration : 2h 26mn
Bit rate : 679 Kbps
Maximum bit rate : 4 867 Kbps
Width : 640 pixels
Height : 272 pixels
Display aspect ratio : 2.40:1
Frame rate mode : Constant
Frame rate : 23.976 fps
Color space : YUV
Chroma subsampling : 4:2:0
Bit depth : 8 bits
Scan type : Progressive
Bits/(Pixel*Frame) : 0.163
Stream size : 709 MiB (72%)
Writing library : x264 core 125 r2200M 999b753
Encoding settings : cabac=1 / ref=3 / deblock=1:0:0 / analyse=0x1:0x131 / me=hex / subme=7 / psy=1 / psy_rd=1.00:0.20 / mixed_ref=1 / me_range=16 / chroma_me=1 / trellis=1 / 8x8dct=0 / cqm=0 / deadzone=21,11 / fast_pskip=1 / chroma_qp_offset=-3 / threads=4 / lookahead_threads=1 / sliced_threads=0 / nr=0 / decimate=1 / interlaced=0 / bluray_compat=0 / constrained_intra=0 / bframes=3 / b_pyramid=0 / b_adapt=2 / b_bias=0 / direct=3 / weightb=1 / open_gop=0 / weightp=0 / keyint=230 / keyint_min=23 / scenecut=40 / intra_refresh=0 / rc_lookahead=40 / rc=2pass / mbtree=1 / bitrate=679 / ratetol=1.0 / qcomp=0.60 / qpmin=10 / qpmax=51 / qpstep=4 / cplxblur=20.0 / qblur=0.5 / vbv_maxrate=5000 / vbv_bufsize=1835 / nal_hrd=none / ip_ratio=1.40 / aq=1:1.00
Language : English
Encoded date : UTC 2015-01-29 04:54:01
Tagged date : UTC 2015-01-29 04:54:19

Audio #1
ID : 2
Format : AAC
Format/Info : Advanced Audio Codec
Format profile : LC
Codec ID : 40
Duration : 2h 26mn
Bit rate mode : Variable
Bit rate : 128 Kbps
Maximum bit rate : 209 Kbps
Channel(s) : 2 channels
Channel positions : Front: L R
Sampling rate : 48.0 KHz
Compression mode : Lossy
Stream size : 134 MiB (14%)
Language : Russian
Encoded date : UTC 2015-01-29 04:54:10
Tagged date : UTC 2015-01-29 04:54:19

Audio #2
ID : 3
Format : AAC
Format/Info : Advanced Audio Codec
Format profile : LC
Codec ID : 40
Duration : 2h 26mn
Bit rate mode : Variable
Bit rate : 128 Kbps
Maximum bit rate : 240 Kbps
Channel(s) : 2 channels
Channel positions : Front: L R
Sampling rate : 48.0 KHz
Compression mode : Lossy
Stream size : 134 MiB (14%)
Language : English
Encoded date : UTC 2015-01-29 04:54:14
Tagged date : UTC 2015-01-29 04:54:19
Скриншоты:


Гарри Поттер и Дары смерти: Часть 2 (Harry Potter and the Deathly Hallows: Part 2) (2011) HDRip
Жанр: Фэнтези, Приключения, Семейный
Производство: Велиобритания, США
Описаниe фильма:
В грандиозной последней главе битва между добрыми и злыми силами мира волшебников перерастает во всеобщую войну. Ставки ещё никогда не были так высоки, а поиск убежища — столь сложен. И быть может именно Гарри Поттеру придется пожертвовать всем в финальном сражении с Волан-де-Мортом. Способен ли наш герой спасти мир? И всё закончится здесь...
Режиссер: Дэвид Йэтс
Актеры: Дэниэл Рэдклифф, Руперт Гринт, Эмма Уотсон, Рэйф Файнс, Алан Рикман, Хелена Бонем Картер, Том Фелтон, Гари Олдман, Майкл Гэмбон, Мэгги Смит
Продолжитeльность: 02:10:27
Качество видео: HDRip
Перевод: Дублированный

Дата мировой премьеры: 7 июля 2011
Дата российской премьеры: 13 июля 2011, «Каро-Премьер»
Дата выхода DVD релиза: 17 ноября 2011, «CP-Digital»
Видеокодек: MPEG-4 AVC/H.264
Битрейт видео: ~679 Kbps
Размер кадра: 640х272
Аудио #1: AAC, 2 канала, ~128 Кбит/сек - русский (дублированный)
Аудио #2: AAC, 2 канала, ~128 Кбит/сек - английский (оригинальный)
General
Complete name : F:\Гарри Поттер (2001-2011) Коллекция\08 Гарри Поттер и дары смерти. Часть 2 (2011).mp4
Format : MPEG-4
Format profile : Base Media
Codec ID : isom
File size : 882 MiB
Duration : 2h 10mn
Overall bit rate mode : Variable
Overall bit rate : 945 Kbps
Movie name : 08 Гарри Поттер и дары смерти Часть 2 (2011) [NoNaMe Club]
ContentType : Short Film
Encoded date : UTC 2015-01-29 22:04:08
Tagged date : UTC 2015-01-29 22:04:46
Writing application : MkvToMp4 [www.mkvtomp4.ru] version: 0.224 (x64)
Comment : [rip by Alien.09]

Video
ID : 1
Format : AVC
Format/Info : Advanced Video Codec
Format profile : Main@L4.1
Format settings, CABAC : Yes
Format settings, ReFrames : 3 frames
Codec ID : avc1
Codec ID/Info : Advanced Video Coding
Duration : 2h 10mn
Bit rate : 679 Kbps
Maximum bit rate : 4 640 Kbps
Width : 640 pixels
Height : 272 pixels
Display aspect ratio : 2.40:1
Frame rate mode : Constant
Frame rate : 23.976 fps
Color space : YUV
Chroma subsampling : 4:2:0
Bit depth : 8 bits
Scan type : Progressive
Bits/(Pixel*Frame) : 0.163
Stream size : 633 MiB (72%)
Writing library : x264 core 125 r2200M 999b753
Encoding settings : cabac=1 / ref=3 / deblock=1:-1:-1 / analyse=0x1:0x131 / me=hex / subme=7 / psy=1 / psy_rd=1.00:0.15 / mixed_ref=1 / me_range=16 / chroma_me=1 / trellis=1 / 8x8dct=0 / cqm=0 / deadzone=21,11 / fast_pskip=1 / chroma_qp_offset=-3 / threads=8 / lookahead_threads=1 / sliced_threads=0 / nr=0 / decimate=1 / interlaced=0 / bluray_compat=0 / constrained_intra=0 / bframes=3 / b_pyramid=0 / b_adapt=2 / b_bias=0 / direct=3 / weightb=1 / open_gop=0 / weightp=0 / keyint=230 / keyint_min=23 / scenecut=40 / intra_refresh=0 / rc_lookahead=40 / rc=2pass / mbtree=1 / bitrate=679 / ratetol=1.0 / qcomp=0.60 / qpmin=10 / qpmax=51 / qpstep=4 / cplxblur=20.0 / qblur=0.5 / vbv_maxrate=5000 / vbv_bufsize=1835 / nal_hrd=none / ip_ratio=1.40 / aq=1:1.00
Language : English
Encoded date : UTC 2015-01-29 22:04:08
Tagged date : UTC 2015-01-29 22:04:23

Audio #1
ID : 2
Format : AAC
Format/Info : Advanced Audio Codec
Format profile : LC
Codec ID : 40
Duration : 2h 10mn
Bit rate mode : Variable
Bit rate : 128 Kbps
Maximum bit rate : 194 Kbps
Channel(s) : 2 channels
Channel positions : Front: L R
Sampling rate : 48.0 KHz
Compression mode : Lossy
Stream size : 119 MiB (14%)
Language : Russian
Encoded date : UTC 2015-01-29 22:04:15
Tagged date : UTC 2015-01-29 22:04:23

Audio #2
ID : 3
Format : AAC
Format/Info : Advanced Audio Codec
Format profile : LC
Codec ID : 40
Duration : 2h 10mn
Bit rate mode : Variable
Bit rate : 128 Kbps
Maximum bit rate : 211 Kbps
Channel(s) : 2 channels
Channel positions : Front: L R
Sampling rate : 48.0 KHz
Compression mode : Lossy
Stream size : 119 MiB (14%)
Language : English
Encoded date : UTC 2015-01-29 22:04:19
Tagged date : UTC 2015-01-29 22:04:23
Скриншоты:


Скриншоты:

Время раздачи: до трёх скачавших
[NNM-Club.me]_Garri Potter (2001-2011) Kollektsiya.torrent
 Торрент: Платиновая раздача  Зарегистрирован
 
Скачать


Примагнититься
 Зарегистрирован:   30 Янв 2015 14:38:33
 Размер:   7,8 GB  (
 Рейтинг:   4,8 (Голосов: 175)
 Поблагодарили:   622
 Проверка:   Оформление проверено модератором 31 Янв 2015 09:09:05
Как cкачать  ·  Как раздать  ·  Правильно оформить  ·  Поднять ратио!  
Bilbo-Baggins
Стаж: 4 года 11 мес.
Сообщений: 88
Ratio: 0,362
Поблагодарили: 5
21.43%
Откуда: Темерия
pirates.png
Качаем спасибо! А то интернет слабый чтобы онлайн смотреть, да и этот шедевр надо в коллекцию занести! Да и 7 гб отличный размер)

_________________
~GPU: MSI NVIDIA GTX 1060 ARMOR OC.
~CPU: Intel i7-2600k @ 3.50GHz (8 потоков, 4 ядра).
~RAM: 16 GB ОЗУ
~Cooling: DeepCool GAMMAXX 400
~SSD: Avexir E100 SSD 120Gb
~Power Supply: XIGMATEK X-CALIBRE 500W (500w to 12 volts)
~PC Case: Aigo
____________________________
Monitor: Asus VG245H
Mouse: Logitech G403
Mouse Pad: Rakoon
Headset: Kingston HyperX Cloud Silver
Keyboard: Corsair K70 RED LED: Cherry MX Red
Gamepad: Xbox 360
--------------------------------------------
alexey3312
Стаж: 8 лет 7 мес.
Сообщений: 688
Ratio: 11,552
Раздал: 9,821 TB
100%
ussr.gif
Да и 640х272 ~679 Kbps отличное качество...

_________________
Металлисты - это самый развитой и передовой класс, и никто не может отрицать, что это и есть передовой отряд всего пролетариата. В.И. Ленин
alien.09 ®
Стаж: 8 лет 6 мес.
Сообщений: 611
Ratio: 280,791
Поблагодарили: 24237
100%
ussr.gif
Предыстория «Гарри Поттера»: первый тизер фильма «Фантастические звери и места их обитания»

В 2016 году вселенная «Гарри Поттера» вернётся на экраны, пусть и без заглавного героя. Действие фильма «Фантастические звери и места их обитания», сценарий которого написан Джоан Роулинг, начнётся в 1926 году в Нью-Йорке, то есть за несколько десятилетий до рождения Гарри Поттера.

Режиссёр картины- Дэвид Йэтс, который поставил четыре последних части «Поттерианы»
Главным героем новой истории станет Ньют Скамандер (Эдди Редмэйн) - учёный, специализирующийся на изучении всевозможных магических существ. По сюжету, в США первой половины XX века к волшебникам относились с огромным подозрением, так что персонажам придётся ещё тяжелее, чем в самом «Гарри Поттере». Фильм, который должен положить начало трилогии, появится на экранах в ноябре 2016 года.
Machadrug
Стаж: 3 года 5 мес.
Сообщений: 2
Ratio: 0,046
2.27%
Хорошие фильмы.

Добавлено спустя 17 секунд:

Хорошие фильмы.
Показать сообщения:   
Начать новую тему   Ответить на тему    Торрент-трекер NNM-Club -> Мультимедиа и прочее -> Мобильное Видео Часовой пояс: GMT + 3
Страница 1 из 1