Классический форум-трекер
canvas not supported
Нас вместе: 4 144 102

Coursera / МФТИ | Электричество и магнетизм - часть 2 (2014) PCRec


 
 
RSS
Начать новую тему   Ответить на тему    Торрент-трекер NNM-Club -> Обучающие видеоматериалы -> Другие обуч.видео
Автор Сообщение
dark_elf2 ®

Online
Стаж: 12 лет 7 мес.
Сообщений: 1140
Ratio: 16.111
Поблагодарили: 91011
100%
ussr.gif
Coursera / МФТИ | Электричество и магнетизм - часть 2 (2014) PCRec
Автор (режиссер): Coursera / МФТИ
Жанр: Физика
Продолжительность: 14:24:07
Качество видео: PCRec
Видеокодек: AVC
Битрейт видео: ~252 Kbps
Размер кадра: 960 х 540
Аудиокодек: AAC
Битрейт аудио: 128 Kbps, 2Ch, 44100 Hz

Описание:
Курс лекций от Московского Физико-Технического Института (МФТИ) по элетричеству и магнетизму (2 часть). Также в составе раздачи имеются семинары и демонстрации физических опытов.

Первая частьCoursera / МФТИ | Электричество и магнетизм - часть 1 (2014)


Станисла́в Миро́нович Ко́зел (6 апреля 1930 — 21 января 2015) — доктор физико-математических наук, профессор Московского физико-технического института. Автор более 100 научных публикаций в области радиофизики и оптики, автор ряда учебников, учебных пособий и сборников задач для высшей и средней школы и более 50 научно-методических публикаций. Заслуженный деятель науки Российской Федерации.

Являлся председателем Методической комиссии по физике Центрального оргкомитета Всероссийских (Всесоюзных) олимпиад школьников. Руководил подготовкой Всероссийских физических олимпиад, сопредседатель секции физики Федерального экспертного совета по учебникам МО и ПО РФ. С 1993 года руководитель Национальной Сборной команды школьников России на Международных олимпиадах по физике.
General
Complete name : C:\Users\Fire_Lizard\Downloads\Электричество и магнетизм (часть 2)\Week 1\Демонстрации\1 - 17 - Демонстрация 1. Явление электромагнитной индукции. Взаимоиндукция (2-05).mp4
Format : MPEG-4
Format profile : Base Media
Codec ID : isom
File size : 6.82 MiB
Duration : 2mn 27s
Overall bit rate : 388 Kbps
Writing application : Lavf55.19.104

Video
ID : 1
Format : AVC
Format/Info : Advanced Video Codec
Format profile : Main@L3.1
Format settings, CABAC : Yes
Format settings, ReFrames : 4 frames
Codec ID : avc1
Codec ID/Info : Advanced Video Coding
Duration : 2mn 27s
Bit rate : 252 Kbps
Width : 960 pixels
Height : 540 pixels
Display aspect ratio : 16:9
Frame rate mode : Constant
Frame rate : 29.970 fps
Color space : YUV
Chroma subsampling : 4:2:0
Bit depth : 8 bits
Scan type : Progressive
Bits/(Pixel*Frame) : 0.016
Stream size : 4.41 MiB (65%)
Writing library : x264 core 138
Encoding settings : cabac=1 / ref=3 / deblock=1:0:0 / analyse=0x1:0x111 / me=hex / subme=7 / psy=1 / psy_rd=1.00:0.00 / mixed_ref=1 / me_range=16 / chroma_me=1 / trellis=1 / 8x8dct=0 / cqm=0 / deadzone=21,11 / fast_pskip=1 / chroma_qp_offset=-2 / threads=12 / lookahead_threads=2 / sliced_threads=0 / nr=0 / decimate=1 / interlaced=0 / bluray_compat=0 / constrained_intra=0 / bframes=3 / b_pyramid=2 / b_adapt=1 / b_bias=0 / direct=1 / weightb=1 / open_gop=0 / weightp=2 / keyint=250 / keyint_min=25 / scenecut=40 / intra_refresh=0 / rc_lookahead=40 / rc=crf / mbtree=1 / crf=28.0 / qcomp=0.60 / qpmin=0 / qpmax=69 / qpstep=4 / ip_ratio=1.40 / aq=1:1.00
Language : English

Audio
ID : 2
Format : AAC
Format/Info : Advanced Audio Codec
Format profile : LC
Codec ID : 40
Duration : 2mn 27s
Duration_LastFrame : -15ms
Bit rate mode : Constant
Bit rate : 128 Kbps
Channel(s) : 2 channels
Channel(s)_Original : 1 channel
Channel positions : Front: C
Sampling rate : 44.1 KHz
Compression mode : Lossy
Stream size : 2.25 MiB (33%)
Language : English
Скриншоты:


Время раздачи: 24/7 (круглосуточно)
[NNM-Club.me]_YElektrichestvo i magnetizm (chast' 2).torrent
 Торрент: Платиновая раздача  Зарегистрирован
 
Скачать


Примагнититься
 Зарегистрирован:   06 Фев 2015 17:46:02
 Размер:   2.41 GB  (
 Рейтинг:   4.9 (Голосов: 59)
 Поблагодарили:   249
 Проверка:   Оформление проверено модератором 10 Фев 2015 13:48:52
Как cкачать  ·  Как раздать  ·  Правильно оформить  ·  Поднять ратио!  
Dracon_88
Стаж: 11 лет
Сообщений: 4
Ratio: 11.126
100%
Откуда: Симферополь
russia.gif
у вас ест субтитры?
alexvl
Стаж: 13 лет
Сообщений: 31
Ratio: 1.879
Поблагодарили: 1472
100%
Откуда: Moscow
russia.gif
привет. дайте скорости, очень нужен этот курс!!
HansonTroy
Стаж: 7 лет 5 мес.
Сообщений: 495
Ratio: 159.646
Раздал: 193.4 TB
100%
наконец разберемся, что же такое электирчество... Спасибо!
Показать сообщения:   
Начать новую тему   Ответить на тему    Торрент-трекер NNM-Club -> Обучающие видеоматериалы -> Другие обуч.видео Часовой пояс: GMT + 3
Страница 1 из 1