Классический форум-трекер
canvas not supported
Нас вместе: 4 079 148

Подвиги Геракла: Медуза Горгона / Непобедимый Персей / Perseo l'invincibile (1963) DVDRip [H.264]


 
 
RSS
Начать новую тему   Ответить на тему    Торрент-трекер NNM-Club -> Классика кино и Старые фильмы до 90-х -> Старые Зарубежные Фильмы (HD*Rip/LQ, DVDRip, SATRip, VHSRip)
Автор Сообщение
охрана ®
RG Releasers
 
Стаж: 8 лет 7 мес.
Сообщений: 3486
Ratio: 3999,604
Поблагодарили: 484094
100%
Откуда: СССР
ussr.gif
Подвиги Геракла: Медуза Горгона / Непобедимый Персей / Perseo l'invincibile (1963) DVDRip [H.264]
Производство: Италия, Испания / Cineproduzione Emo Bistolfi, Copercines, Cooperativa Cinematogrfica
Жанр: Фэнтези, Приключения

Режиссер: Альберто Де Мартино
Сценарий: Марио Гуерра, Альберто Де Мартино, Эрнесто Гастальди
Актеры: Ричард Харрисон, Анна Раналли, Артуро Доминичи, Элиза Чегани, Антонио Молино Рохо, Роберто Камардьель, Анхель Хордан, Фернандо Лихер, Бруно Шипиони

Описание фильма:
Горгону Медузу древние греки представляли себе в виде огромной женщины, у которой вместо волос из головы пучками торчали извивающиеся змеи, а взгляд ее пронзительных глаз был настолько ужасен и отвратителен, что люди, случайно встретившиеся с ней, обращались в камни…
Медуза Горгона напоминает мерзкое безлистное дерево, или скорее узел из переплетенных корней, которые обрамляют один-единственный пылающий глаз, пронизывающий все вокруг… И это еще не все — масса других тварей и гадов противостоит блистательному Гераклу, который бросил вызов всесилию Зла…



Продолжительность: 01:24:23
Качество видео: DVDRip
Перевод: Многоголосый закадровый
Субтитры: Отсутствуют

Видео: MPEG-4 AVC/H.264, 1664 Кбит/сек, 720x304
Аудио: AC3 2.0, 192 Кбит/сек, 48.0 kHz
Сэмпл: Скачать
General
Unique ID : 228007694712381651142633551887452083900 (0xAB88AF472BAF955B9F98D98715B416BC)
Complete name : F:\Downloads\Подвиги Геракла. Медуза Горгона.mkv
Format : Matroska
Format version : Version 4 / Version 2
File size : 1.10 GiB
Duration : 1h 24mn
Overall bit rate : 1 858 Kbps
Encoded date : UTC 2015-02-22 11:32:02
Writing application : mkvmerge v7.0.0 ('Where We Going') 32bit built on Jun 9 2014 15:08:34
Writing library : libebml v1.3.0 + libmatroska v1.4.1
DURATION : 01:24:23.008000000
NUMBER_OF_FRAMES : 158219
NUMBER_OF_BYTES : 121512192
_STATISTICS_WRITING_APP : mkvmerge v7.0.0 ('Where We Going') 32bit built on Jun 9 2014 15:08:34
_STATISTICS_WRITING_DATE_UTC : 2015-02-22 11:32:02
_STATISTICS_TAGS : BPS DURATION NUMBER_OF_FRAMES NUMBER_OF_BYTES

Video
ID : 1
Format : AVC
Format/Info : Advanced Video Codec
Format profile : High@L3.1
Format settings, CABAC : Yes
Format settings, ReFrames : 8 frames
Codec ID : V_MPEG4/ISO/AVC
Duration : 1h 24mn
Bit rate : 1 664 Kbps
Width : 720 pixels
Height : 304 pixels
Display aspect ratio : 2.35:1
Frame rate mode : Constant
Frame rate : 25.000 fps
Color space : YUV
Chroma subsampling : 4:2:0
Bit depth : 8 bits
Scan type : Progressive
Bits/(Pixel*Frame) : 0.304
Stream size : 983 MiB (88%)
Title : Perseo L'invincibile
Writing library : x264 core 125 r2208 d9d2288
Encoding settings : cabac=1 / ref=8 / deblock=1:-1:-1 / analyse=0x3:0x133 / me=umh / subme=9 / psy=1 / psy_rd=1.00:0.10 / mixed_ref=1 / me_range=32 / chroma_me=1 / trellis=2 / 8x8dct=1 / cqm=0 / deadzone=21,11 / fast_pskip=0 / chroma_qp_offset=-3 / threads=6 / lookahead_threads=1 / sliced_threads=0 / nr=0 / decimate=1 / interlaced=0 / bluray_compat=0 / constrained_intra=0 / bframes=3 / b_pyramid=2 / b_adapt=2 / b_bias=0 / direct=3 / weightb=1 / open_gop=0 / weightp=2 / keyint=250 / keyint_min=25 / scenecut=40 / intra_refresh=0 / rc_lookahead=60 / rc=2pass / mbtree=1 / bitrate=1664 / ratetol=1.0 / qcomp=0.60 / qpmin=0 / qpmax=69 / qpstep=4 / cplxblur=20.0 / qblur=0.5 / ip_ratio=1.40 / aq=1:1.00
Language : English
Default : Yes
Forced : No

Audio
ID : 2
Format : AC-3
Format/Info : Audio Coding 3
Mode extension : CM (complete main)
Format settings, Endianness : Big
Codec ID : A_AC3
Duration : 1h 24mn
Bit rate mode : Constant
Bit rate : 192 Kbps
Channel(s) : 2 channels
Channel positions : Front: L R
Sampling rate : 48.0 KHz
Bit depth : 16 bits
Compression mode : Lossy
Stream size : 116 MiB (10%)
Title : Многоголосый закадровый
Language : Russian
Default : Yes
Forced : No
Скриншоты:

Время раздачи: с 14:00 до 02:00 по Москве (выходные круглосуточно), до 10 скачавших
[NNM-Club.me]_Podvigi Gerakla. Meduza Gorgona.mkv.torrent
 Торрент: Платиновая раздача  Зарегистрирован
 
Скачать


Примагнититься
 Зарегистрирован:   22 Фев 2015 16:40:56
 Размер:   1,1 GB  (
 Рейтинг:   4,6 (Голосов: 34)
 Поблагодарили:   133
 Проверка:   Оформление проверено модератором 27 Фев 2015 02:33:54
Как cкачать  ·  Как раздать  ·  Правильно оформить  ·  Поднять ратио!  
lexa-pupok
Стаж: 8 лет 2 мес.
Сообщений: 271
Ratio: 22,546
100%
russia.gif
Классика спасибо .......
Nemec555
Стаж: 7 лет 3 мес.
Сообщений: 771
Ratio: 107,9
Раздал: 58 TB
Поблагодарили: 2858
100%
Откуда: Берлин
germany.gif
Спасибо, фильм понравился.
pervogaz
Uploader 100+
Стаж: 10 лет 6 мес.
Сообщений: 270
Ratio: 233,277
Раздал: 202,7 TB
100%
Откуда: Первомайск
ukraine.gif
Помогите скачать, пожалуйста !
pervogaz
Uploader 100+
Стаж: 10 лет 6 мес.
Сообщений: 270
Ratio: 233,277
Раздал: 202,7 TB
100%
Откуда: Первомайск
ukraine.gif
Вернитесь на раздачу, пожалуйста !
serg999batan
Стаж: 3 года 3 мес.
Сообщений: 1
Ratio: 4,836
3.7%
Здравствуйте. Сколько всего фильмов про Геракла в этой серии?
Показать сообщения:   
Начать новую тему   Ответить на тему    Торрент-трекер NNM-Club -> Классика кино и Старые фильмы до 90-х -> Старые Зарубежные Фильмы (HD*Rip/LQ, DVDRip, SATRip, VHSRip) Часовой пояс: GMT + 3
Страница 1 из 1