Классический форум-трекер
canvas not supported
Нас вместе: 4 094 045

Вячеслав Шалыгин | Обратный отсчёт [S.T.A.L.K.E.R.] (2010) [M4B|AAC]


 
 
RSS
Начать новую тему   Ответить на тему    Торрент-трекер NNM-Club -> Аудио и Видео -> Аудиокниги (AAC)
Автор Сообщение
igooru ®
Стаж: 10 лет
Сообщений: 52
Ratio: 2,369
Раздал: 943 GB
Поблагодарили: 4649
100%
ussr.gif
Вячеслав Шалыгин | Обратный отсчёт [S.T.A.L.K.E.R.]
Автор: Вячеслав Шалыгин
Год: 2010
Жанр: фантастика
Продолжительность: 14:08:48
Исполнитель: Мрак79

Описание: Офицеры Международной инспекции устремились к центру Припяти всего за сутки до очередного смертоносного выброса и сталкер Старый, по контракту, должен был прикрывать их тылы, а после выполнения инспекторами загадочного задания – убрать всех посторонних, прикоснувшихся к тайне Зова. Но как быть, если эти «посторонние» уже дважды спасали его жизнь в стычках с «дикими» сталкерами и бесчисленными мутантами? Кто они – низкорослый Смокер, неразлучный с огнеметом и чёрный человек с японским мечом, ловко обезглавливающий своих противников? Путь подопечным Лунёва преграждали смертельно опасные аномалии, но страшнее было другое: над группой нависла тень предательства…

Первый роман подцикла «Андрей Лунёв»
из межавторского цикла «S.T.A.L.K.E.R.»


Формат: M4B
Аудиокодек: AAC
Битрейт: 128 kbps
Частота: 44,1 KHz
Разбивка на части: есть
Разбивка на главы: есть
Вшитые обложки: есть
Музыкальное сопровождение: есть

Общее
Полное имя : /S.T.A.L.K.E.R./Вячеслав Шалыгин - Андрей Лунёв/1. Обратный отсчет (читает Мрак79)/Обратный отсчёт. Часть 1.m4b
Формат : MPEG-4
Профиль формата : Base Media / Version 2
Идентификатор кодека : mp42 (mp42/mp41)
Размер файла : 391 Мбайт
Продолжительность : 8 ч. 25 м.
Режим общего битрейта : Постоянный
Общий поток : 108 Кбит/сек
Название фильма : Обратный отсчёт. Часть 1
Альбом : Обратный отсчёт
Альбом/Сортировать по : Обратный отсчёт
Альбом/Исполнитель : Вячеслав Шалыгин
Трек/Положение : 1
Трек/Всего : 2
Исполнитель : Вячеслав Шалыгин
Исполнитель/Сортировать по : Вячеслав Шалыгин
Композитор : Мрак79
Жанр : фантастика, постапокалиптика
Тип содержимого : Audiobook
Описание : Офицеры Международной инспекции идут к центру Припяти всего за сутки до очередного выброса и сталкер Старый, по контракту, должен прикрывать их тылы, а после выполнения инспекторами задания – убрать всех посторонних, прикоснувшихся к тайне Зова...
Дата записи : 2010
Дата кодирования : UTC 2016-05-07 02:49:07
Дата пометки : UTC 2016-05-07 06:06:00
Программа кодирования : Rusticus IV для библиотеки WWW.AUDIOKNIGA.ORG / QuickTime 7.7.3
Авторское право : Вячеслав Шалыгин
Обложка : Yes
Текст песен : S.T.A.L.K.E.R., Обратный отсчёт, С.Т.А.Л.К.Е.Р., Вячеслав Шалыгин, Мрак79, фантастика, постапокалиптика, аудиокнига, m4b, audiobook, audiokniga.org
Примечание : Первый роман подцикла «Андрей Лунёв» из межавторского цикла «S.T.A.L.K.E.R.»
LongDescription : Офицеры Международной инспекции устремились к центру Припяти всего за сутки до очередного смертоносного выброса и сталкер Старый, по контракту, должен был прикрывать их тылы, а после выполнения инспекторами загадочного задания – убрать всех посторонних, прикоснувшихся к тайне Зова. Но как быть, если эти «посторонние» уже дважды спасали его жизнь в стычках с «дикими» сталкерами и бесчисленными мутантами? Кто они – низкорослый Смокер, неразлучный с огнеметом, и чёрный человек с японским мечом, ловко обезглавливающий своих противников? Путь подопечным Лунёва преграждали смертельно опасные аномалии, но страшнее было другое: над группой нависла тень предательства…

Видео
Идентификатор : 2
Формат : JPEG
Идентификатор кодека : jpeg
Продолжительность : 8 ч. 25 м.
Вид битрейта : Постоянный
Битрейт : 18 бит/сек
Ширина : 512 пикселей
Высота : 512 пикселей
Соотношение сторон : 1,000
Режим частоты кадров : Постоянный
Частота кадров : 0,000 кадр/сек
Цветовое пространство : YUV
Субдискретизация насыщенности : 4:2:0
Битовая глубина : 8 бит
Метод сжатия : С потерями
Размер потока : 67,4 Кбайт (0%)
Язык : English
Дата кодирования : UTC 2016-05-07 02:50:08
Дата пометки : UTC 2016-05-07 02:50:09
Menu For : 1

Аудио
Идентификатор : 1
Формат : AAC
Формат/Информация : Advanced Audio Codec
Профиль формата : LC
Идентификатор кодека : 40
Продолжительность : 8 ч. 25 м.
Продолжительность оригинала : 8 ч. 25 м.
Вид битрейта : Постоянный
Битрейт : 106 Кбит/сек
Номинальный битрейт : 128 Кбит/сек
Каналы : 2 канала
Расположение каналов : Front: L R
Частота : 44,1 КГц
Частота кадров : 43,066 кадра/сек (1024 spf)
Метод сжатия : С потерями
Размер потока : 384 Мбайт (98%)
Размер потока оригинала : 384 Мбайт (98%)
Язык : English
Дата кодирования : UTC 2016-05-07 02:48:57
Дата пометки : UTC 2016-05-07 06:06:00
Menus : 3,2

Меню
Идентификатор : 3
Идентификатор кодека : text
Продолжительность : 8 ч. 25 м.
Язык : English
Дата кодирования : UTC 2016-05-07 02:50:08
Дата пометки : UTC 2016-05-07 02:50:09
Menu For : 1
00:00:00.000 : Пролог
00:35:47.708 : Глава 1
01:28:28.365 : Глава 2
02:07:24.050 : Глава 3
03:00:46.320 : Глава 4
03:44:36.326 : Глава 5
04:35:52.818 : Глава 6
05:09:16.851 : Глава 7
05:58:42.503 : Глава 8
06:45:18.950 : Глава 9
07:53:18.073 : Глава 10
Вид битрейта : VBR
Общее
Полное имя : /S.T.A.L.K.E.R./Вячеслав Шалыгин - Андрей Лунёв/1. Обратный отсчет (читает Мрак79)/Обратный отсчёт. Часть 2.m4b
Формат : MPEG-4
Профиль формата : Apple audio with iTunes info
Идентификатор кодека : M4A (M4A /mp42/isom)
Размер файла : 267 Мбайт
Продолжительность : 5 ч. 43 м.
Режим общего битрейта : Постоянный
Общий поток : 109 Кбит/сек
Название фильма : Обратный отсчёт. Часть 2
Альбом : Обратный отсчёт
Альбом/Сортировать по : Обратный отсчёт
Альбом/Исполнитель : Вячеслав Шалыгин
Трек/Положение : 2
Трек/Всего : 2
Исполнитель : Вячеслав Шалыгин
Исполнитель/Сортировать по : Вячеслав Шалыгин
Композитор : Мрак79
Жанр : фантастика, постапокалиптика
Тип содержимого : Audiobook
Описание : Офицеры Международной инспекции идут к центру Припяти всего за сутки до очередного выброса и сталкер Старый, по контракту, должен прикрывать их тылы, а после выполнения инспекторами задания – убрать всех посторонних, прикоснувшихся к тайне Зова...
Дата записи : 2010
Дата кодирования : UTC 2016-05-07 02:55:42
Дата пометки : UTC 2016-05-07 06:06:15
Программа кодирования : Rusticus IV для библиотеки WWW.AUDIOKNIGA.ORG / QuickTime 7.7.3
Авторское право : Вячеслав Шалыгин
Обложка : Yes
Текст песен : S.T.A.L.K.E.R., Обратный отсчёт, С.Т.А.Л.К.Е.Р., Вячеслав Шалыгин, Мрак79, фантастика, постапокалиптика, аудиокнига, m4b, audiobook, audiokniga.org
Примечание : Первый роман подцикла «Андрей Лунёв» из межавторского цикла «S.T.A.L.K.E.R.»
LongDescription : Офицеры Международной инспекции устремились к центру Припяти всего за сутки до очередного смертоносного выброса и сталкер Старый, по контракту, должен был прикрывать их тылы, а после выполнения инспекторами загадочного задания – убрать всех посторонних, прикоснувшихся к тайне Зова. Но как быть, если эти «посторонние» уже дважды спасали его жизнь в стычках с «дикими» сталкерами и бесчисленными мутантами? Кто они – низкорослый Смокер, неразлучный с огнеметом, и чёрный человек с японским мечом, ловко обезглавливающий своих противников? Путь подопечным Лунёва преграждали смертельно опасные аномалии, но страшнее было другое: над группой нависла тень предательства…

Видео
Идентификатор : 2
Формат : JPEG
Идентификатор кодека : jpeg
Продолжительность : 5 ч. 43 м.
Вид битрейта : Постоянный
Битрейт : 27 бит/сек
Ширина : 512 пикселей
Высота : 512 пикселей
Соотношение сторон : 1,000
Режим частоты кадров : Постоянный
Частота кадров : 0,000 кадр/сек
Цветовое пространство : YUV
Субдискретизация насыщенности : 4:2:0
Битовая глубина : 8 бит
Метод сжатия : С потерями
Размер потока : 67,4 Кбайт (0%)
Язык : English
Дата кодирования : UTC 2016-05-07 02:56:08
Дата пометки : UTC 2016-05-07 02:56:08
Menu For : 1

Аудио
Идентификатор : 1
Формат : AAC
Формат/Информация : Advanced Audio Codec
Профиль формата : LC
Идентификатор кодека : 40
Продолжительность : 5 ч. 43 м.
Продолжительность оригинала : 5 ч. 43 м.
Вид битрейта : Постоянный
Битрейт : 107 Кбит/сек
Номинальный битрейт : 128 Кбит/сек
Каналы : 2 канала
Расположение каналов : Front: L R
Частота : 44,1 КГц
Частота кадров : 43,066 кадра/сек (1024 spf)
Метод сжатия : С потерями
Размер потока : 262 Мбайт (98%)
Размер потока оригинала : 262 Мбайт (98%)
Язык : English
Дата кодирования : UTC 2016-05-07 02:51:35
Дата пометки : UTC 2016-05-07 06:06:15
Menus : 3,2

Меню
Идентификатор : 3
Идентификатор кодека : text
Продолжительность : 5 ч. 43 м.
Язык : English
Дата кодирования : UTC 2016-05-07 02:56:08
Дата пометки : UTC 2016-05-07 02:56:08
Menu For : 1
00:00:00.000 : Глава 11
00:35:42.510 : Глава 12
01:21:13.976 : Глава 13
01:51:12.455 : Глава 14
02:13:42.045 : Глава 15
02:40:36.018 : Глава 16
03:07:52.353 : Глава 17
03:33:34.570 : Глава 18
03:54:26.120 : Глава 19
04:14:54.501 : Глава 20
05:03:14.378 : Глава 21
05:29:01.191 : Эпилог
Вид битрейта : VBR
торрент обновлён 16.05.2016
[NNMClub.to]_S.T.A.L.K.E.R. - Vjacheslav Shalygin - Obratnyj otschet.torrent
 Торрент: Платиновая раздача  Зарегистрирован
 
Скачать


Примагнититься
 Зарегистрирован:   16 Май 2016 17:52:26
 Размер:   658 MB  (
 Рейтинг:   4,6 (Голосов: 39)
 Поблагодарили:   138
 Проверка:   Оформление проверено модератором 19 Май 2016 12:00:31
Как cкачать  ·  Как раздать  ·  Правильно оформить  ·  Поднять ратио!  
Показать сообщения:   
Начать новую тему   Ответить на тему    Торрент-трекер NNM-Club -> Аудио и Видео -> Аудиокниги (AAC) Часовой пояс: GMT + 3
Страница 1 из 1