Классический форум-трекер
canvas not supported
Нас вместе: 4 094 027

Lynda.com | Photoshop CC Один-на-Один. Мастер (2014) PCRec


Страницы:  1, 2  След. 
 
RSS
Начать новую тему   Ответить на тему    Торрент-трекер NNM-Club -> Обучающие видеоматериалы -> Компьютеры
Автор Сообщение
anonymous
Стаж: 11 лет 8 мес.
Сообщений: 3140
Поблагодарили: 81689
0%
Photoshop CC Один-на-Один. Мастер (2014) PCRec
Автор (режиссер): Lynda.com
Жанр: Photoshop CC
Продолжительность: 09:04:00
Качество видео: PCRec
Видеокодек: MPEG4 (H.264)
Битрейт видео: ~1800 kb/s VBR
Размер кадра: 1280x720 30fps
Аудиокодек: AAC
Битрейт аудио: 125 kb/s, 2 Ch, 48000Hz
Учебные материалы: Есть

Описание:
Обучающий пошаговый видеокурс по новой версии Photoshop CC от признанного эксперта по продуктам Adobe Дика МакКлелланда (Deke McClelland).
Это четвертая заключительная часть серии видеокурсов "Photoshop CC One-on-One", в которой Дик показывает самые продвинутые возможности Photoshop CC.
В этой части рассматриваются такие вопросы, как: создание профессиональных эффектов с наложением художественных фильтров; создание водяных знаков со световыми эффектами; устранение дрожания камеры в Shake Reduction filter; удаление искажений из GoPro фото; коррекция панорамы с Adaptive Wide Angle filter; анимация текста с Марионеточной Деформацией; добавление переходов, текста и звука к видео; создание портрета в HDR формате; управление расширенными свойствами слоев; автоматизация и пакетная обработка.
Join Photoshop master Deke McClelland in the fourth and final installment of his popular Photoshop CC One-on-One series. In this course, Deke shares step-by-step tutorials and expert-level insights on the most powerful features, helping you make your own way to true Photoshop mastery.
Topics include:
Creating professional-quality effects with expertly combined art filters
Creating a dimensional watermark with lighting effects
Correcting for camera shake with the Shake Reduction filter
Removing distortion from a GoPro photo
Correcting a panorama with the Adaptive Wide Angle filter
Animating text with Puppet Warp
Adding transitions, text, and sound to videos
Creating an authentic HDR portrait shot
Managing and leveraging advanced layer options
Recording automatic actions and batch processing
Дик МакКлелланд (Deke McClelland) - один из наиболее уважаемых экспертов отрасли по продуктам Adobe. Он пишет книги, статьи и создает обучающие видео по программам Photoshop, Illustrator и InDesign с момента их появления на рынке. Диком написано более 80 книг, переведенных на 24 языка, записано около 2000 часов обучающих видео. Его книги становятся бестселлерами, а видео набирают миллионы просмотров.
Общее
Полное имя : D:\3. Меняем настройки в галерее фильтров.mp4
Формат : MPEG-4
Идентификатор кодека : M4V
Размер файла : 61,2 Мбайт
Продолжительность : 4 м. 27 с.
Режим общего битрейта : Переменный
Общий поток : 1916 Кбит/сек
Дата кодирования : UTC 2014-10-29 03:53:44
Дата пометки : UTC 2014-10-29 03:53:45
©TIM : 00:00:00:00
©TSC : 30
©TSZ : 1

Видео
Идентификатор : 1
Формат : AVC
Формат/Информация : Advanced Video Codec
Профиль формата : Main@L4.1
Параметр CABAC формата : Нет
Параметр ReFrames формата : 2 кадра
Параметр GOP формата : M=1, N=30
Идентификатор кодека : avc1
Идентификатор кодека/Информация : Advanced Video Coding
Продолжительность : 4 м. 27 с.
Вид битрейта : Переменный
Битрейт : 1800 Кбит/сек
Ширина : 1280 пикселей
Высота : 720 пикселей
Соотношение сторон : 16:9
Режим частоты кадров : Постоянный
Частота кадров : 30,000 кадров/сек
Стандарт вещания : NTSC
Цветовое пространство : YUV
Субдискретизация насыщенности : 4:2:0
Битовая глубина : 8 бит
Тип развёртки : Прогрессивная
Бит/(Пиксели*Кадры) : 0.065
Размер потока : 57,1 Мбайт (93%)
Язык : English
Дата кодирования : UTC 2014-10-29 03:53:44
Дата пометки : UTC 2014-10-29 03:53:44
colour_range : Limited

Аудио
Идентификатор : 2
Формат : AAC
Формат/Информация : Advanced Audio Codec
Профиль формата : LC
Идентификатор кодека : 40
Продолжительность : 4 м. 27 с.
Продолжительность оригинала : 4 м. 27 с.
Вид битрейта : Переменный
Битрейт : 125 Кбит/сек
Максимальный битрейт : 182 Кбит/сек
Каналы : 2 канала
Расположение каналов : Front: L R
Частота : 48,0 КГц
Метод сжатия : С потерями
Размер потока : 4,00 Мбайт (7%)
Размер потока оригинала : 4,00 Мбайт (7%)
Язык : English
Дата кодирования : UTC 2014-10-29 03:53:44
Дата пометки : UTC 2014-10-29 03:53:44
Скриншоты:


Время раздачи: С 11:00 до 00:00
[NNM-Club.me]_Photoshop CC. Odin-na-Odin. Master. 2014.torrent
 Торрент: Платиновая раздача  Зарегистрирован
 
Скачать


Примагнититься
 Зарегистрирован:   02 Мар 2015 04:54:13
 Размер:   13,6 GB  (
 Рейтинг:   4,9 (Голосов: 183)
 Поблагодарили:   730
 Проверка:   Оформление проверено модератором 02 Мар 2015 18:21:00
Как cкачать  ·  Как раздать  ·  Правильно оформить  ·  Поднять ратио!  
goblin2013
Стаж: 6 лет
Сообщений: 167
Ratio: 0,23
27.51%
Спасибо!
kevlar333
Стаж: 5 лет 8 мес.
Сообщений: 32
Ratio: 7,668
0.37%
Скажите, пожалуйста, данный курс переведен на русский язык?
mozgHD
Uploader 100+
Стаж: 10 лет 2 мес.
Сообщений: 10
Ratio: 106,656
Поблагодарили: 2
100%
kevlar333 писал(а): Перейти к сообщению
Скажите, пожалуйста, данный курс переведен на русский язык?

Исходя из названия скачиваемой папки "[lynda.com] - Photoshop CC One-on-One - Master (2014, RUS)" надеюсь да
Extaform
Стаж: 11 лет 11 мес.
Сообщений: 307
Ratio: 5,485
Поблагодарили: 3370
22.1%
nnm-club.gif
Мощь! Премного благодарен!
kevlar333
Стаж: 5 лет 8 мес.
Сообщений: 32
Ratio: 7,668
0.37%
mozgHD писал(а): Перейти к сообщению
kevlar333 писал(а): Перейти к сообщению
Скажите, пожалуйста, данный курс переведен на русский язык?

Исходя из названия скачиваемой папки "[lynda.com] - Photoshop CC One-on-One - Master (2014, RUS)" надеюсь да


Так может название только и перевели ))
anonymous ®
Стаж: 11 лет 8 мес.
Сообщений: 3140
Поблагодарили: 81689
0%
Курс полностью переведен и озвучен на русском.
Veleslav666
Стаж: 9 лет 3 мес.
Сообщений: 254
Ratio: 28,308
100%
belarus.gif
MediaInfo слабо прочитать?
Язык : English
Alexandrusyk
Стаж: 8 лет 10 мес.
Сообщений: 327
Ratio: 25,864
100%
А в содержании курса есть какие-то различия?
Lynda.com | Photoshop CC One-on-One: Mastery (2013) PCRec [EN]
require_once
Стаж: 8 лет 9 мес.
Сообщений: 488
Ratio: 8,096
Раздал: 4,834 TB
Поблагодарили: 52997
100%
Откуда: Россия
pirates.png
Veleslav666 писал(а): Перейти к сообщению
MediaInfo слабо прочитать?
Язык : English

MediaInfo не всегда право) Я раздал много переводов, где то же было Язык : English. Этот курс на русском, у меня такой же и файлы все такие же.
nnmclub0112
Стаж: 8 лет 1 мес.
Сообщений: 3906
Ratio: 88,924
Поблагодарили: 251460
100%
Veleslav666 писал(а): Перейти к сообщению
MediaInfo слабо прочитать?
Язык : English

Курс озвучен на русском языке.
kevlar333
Стаж: 5 лет 8 мес.
Сообщений: 32
Ratio: 7,668
0.37%
Veleslav666 писал(а): Перейти к сообщению
MediaInfo слабо прочитать?
Язык : English


Умник))
А курс все-таки с русским переводом оказался...
Rubec
Стаж: 7 лет 9 мес.
Сообщений: 1451
Ratio: 155,196
Поблагодарили: 203152
100%
russia.gif
Lynda.com | Photoshop CS6 - Базовый курс (2012) [PCRec]
Lynda.com | Photoshop CC. Один-на-Один. Средний уровень (2013) PCRec
ZAXAR__
Стаж: 5 лет 11 мес.
Сообщений: 349
Ratio: 125,038
Раздал: 51,8 TB
100%
Откуда: CCCP
ussr.gif
anonymous - Вам большое спасибо за раздачу!
RomeoCUBA
Стаж: 8 лет 6 мес.
Сообщений: 38
Ratio: 4,846
100%
Круто, большое спасибо!
но ужать бы размер, хотя бы вдвое :смущение:
Показать сообщения:   
Начать новую тему   Ответить на тему    Торрент-трекер NNM-Club -> Обучающие видеоматериалы -> Компьютеры Часовой пояс: GMT + 3
Страницы:  1, 2  След.
Страница 1 из 2