Классический форум-трекер
canvas not supported
Нас вместе: 4 081 626

Гномомобиль / The Gnome-Mobile (1967) VHSRip


 
 
RSS
Начать новую тему   Ответить на тему    Торрент-трекер NNM-Club -> Видео -> Зарубежные Фильмы для детей
Автор Сообщение
OldMovie ®
Стаж: 8 лет 10 мес.
Сообщений: 629
Ratio: 2279,93
Поблагодарили: 5322
100%
Гномомобиль / The Gnome-Mobile (1967) VHSRip
Производство: США, Walt Disney Productions
Жанр: Приключения, Семейный, Фэнтези

Режиссер: Роберт Стивенсон
Актеры: Уолтер Бреннам, Кэтрин Дотрис, Мэтью Грабер, Ричард Дикон и др.

Описание фильма:
Дедушка и миллионер отправляется со своими внуками Лизой и Родни в заповедник Рэдвуд, где встречают гнома Джаспера, который просит "ду-динов" (т.е. больших людей) о помощи. Как выясняется помочь гному не так то просто


Продолжительность: 01:24:52
Качество видео: VHSRip
Перевод: Одноголосый закадровый
Автор перевода: Трамвай-фильм
Язык субтитров: Русский (только тексты песен по смыслу)
Вид субтитров: Вшитые

Видеокодек: Xvid
Битрейт видео: ~1199 kbps
Размер кадра: 640х480
Аудиокодек: MP3
Битрейт аудио: 128 kbps, 2 канала
1. Автомобиль, на котором разъезжает Малруни, это Rolls-Royce Phantom II 1932 года
2. Фильм снят по одноименной книге Аптона Синклера
3. Исполнитель Родни (Мэтью Грабер) во всех фильмах, в которых он успел сняться, сыграл со своей "напарницей" Кэтрин Дотрис (она исполнила роль внучки Малруни - Лизы). участь этого актера сложилась печально - он умер в возрасте 21 года от Гепатита.
4. В фильме эпизодические роли сыграли две звезды, популярного на тот момент сериала, "Зеленые просторы". Это были Френк Кэди - сыграл служащего Куэкстона (исполнитель роли Сэма Дракера в "Зеленых просторах") и Алви Мур - сыграл автомеханика (исполнитель роли агронома Кимбалла в "Зеленых просторах")
5. Этот фильм был показан в рамках проекта "Дисней по пятницам" в 1995 году
Код:

Video
ID : 0
Format : MPEG-4 Visual
Format profile : Simple@L3
Format settings, BVOP : No
Format settings, QPel : No
Format settings, GMC : No warppoints
Format settings, Matrix : Default (H.263)
Codec ID : XVID
Codec ID/Hint : XviD
Duration : 1h 24mn
Bit rate : 1 199 Kbps
Width : 640 pixels
Height : 480 pixels
Display aspect ratio : 4:3
Frame rate : 24.000 fps
Color space : YUV
Chroma subsampling : 4:2:0
Bit depth : 8 bits
Scan type : Progressive
Compression mode : Lossy
Bits/(Pixel*Frame) : 0.163
Stream size : 728 MiB (89%)
Writing library : XviD 1.2.1 (UTC 2008-12-04)

Audio
ID : 1
Format : MPEG Audio
Format version : Version 1
Format profile : Layer 3
Mode : Joint stereo
Mode extension : MS Stereo
Codec ID : 55
Codec ID/Hint : MP3
Duration : 1h 24mn
Bit rate mode : Constant
Bit rate : 128 Kbps
Channel(s) : 2 channels
Sampling rate : 44.1 KHz
Compression mode : Lossy
Stream size : 77.7 MiB (10%)
Alignment : Aligned on interleaves
Interleave, duration : 26 ms (0.63 video frame)
Writing library : LAME3.98.2
Скриншоты:

Время раздачи: 20:00 до 23:50
[NNM-Club.me]_g-mobile.torrent
 Торрент: Платиновая раздача  Зарегистрирован
 
Скачать


Примагнититься
 Зарегистрирован:   22 Мар 2015 18:36:39
 Размер:   816 MB  (
 Рейтинг:   4,2 (Голосов: 14)
 Поблагодарили:   42
 Проверка:   Оформление проверено модератором 23 Мар 2015 00:21:22
Как cкачать  ·  Как раздать  ·  Правильно оформить  ·  Поднять ратио!  
Romario83
Стаж: 5 лет 6 мес.
Сообщений: 55
Ratio: 14,836
100%
Была замечательная книга - сборник "Сказки дядюшки Римуса". Сначала прочитать, потом смотреть )
Показать сообщения:   
Начать новую тему   Ответить на тему    Торрент-трекер NNM-Club -> Видео -> Зарубежные Фильмы для детей Часовой пояс: GMT + 3
Страница 1 из 1