Классический форум-трекер
canvas not supported
Нас вместе: 4 126 614

Баранцев Алексей | Тестирование защищенности веб-приложений (2014) PCRec


 
 
RSS
Начать новую тему   Ответить на тему    Торрент-трекер NNM-Club -> Обучающие видеоматериалы -> Компьютеры, обуч.видео
Автор Сообщение
Pureflame ®
Стаж: 7 лет 10 мес.
Сообщений: 217
Ratio: 265,523
Поблагодарили: 23391
100%
Баранцев Алексей | Тестирование защищенности веб-приложений (2014) PCRec
Автор (режиссер): Баранцев Алексей
Жанр: Компьютерная безопасность
Продолжительность: 05:39:20
Качество видео: PCRec
Видеокодек: AVC
Битрейт видео: ~83 kbps
Размер кадра: 1280 x 720
Аудиокодек: AC3 2.0
Битрейт аудио: 48.0 kbps (CBR), 1 Ch, 44100 Hz

Описание:
Тестирование веб-приложений интересно тем, что оно требует наиболее широкого владения различными видами тестирования. Одно из ключевых мест занимает тестирование защищенности (security testing) или проверка отсутствия известных уязвимостей.
Основные принципы компроментации защиты веб-приложения:

Атаки на клиент (браузер)
Атаки на сервер
Атаки на сеть
Социальная инженерия
Инструментарий тестировщика

Анализ исходного кода
Анализ данных и структуры запросов
Сканирование (поиск вширь)
Фаззинг (поиск вглубь)
Распространенные атаки на клиент:

обход валидаторов
подделка cookies и перехват сессий
сross-site scripting (XSS)
cross-site request forgery (XSRF)
Распространенные атаки на сервер:

SQL-инъекции
файловые инъекции (внедрение backdoor shell)
командные инъекции (удаленное выполнение команд)
получение доступа к содержимому директорий и файлов
отказ в обслуживании (DoS)
Веб-сервисы (SOAP, REST, JSON API)
General
Complete name : sec_testing_lesson_1.wmv
Format : Windows Media
File size : 88.7 MiB
Duration : 1h 25mn
Overall bit rate mode : Variable
Overall bit rate : 145 Kbps
Maximum Overall bit rate : 1 245 Kbps
Movie name : sec_testing_lesson1
Encoded date : UTC 2013-06-05 21:01:44.383

Video
ID : 2
Format : VC-1
Format profile : MP@HL
Codec ID : WMV3
Codec ID/Info : Windows Media Video 9
Codec ID/Hint : WMV3
Description of the codec : Windows Media Video 9
Duration : 1h 25mn
Bit rate mode : Variable
Bit rate : 83.0 Kbps
Width : 1 280 pixels
Height : 720 pixels
Display aspect ratio : 16:9
Frame rate : 15.000 fps
Color space : YUV
Chroma subsampling : 4:2:0
Bit depth : 8 bits
Scan type : Progressive
Compression mode : Lossy
Bits/(Pixel*Frame) : 0.006
Stream size : 50.7 MiB (57%)
Language : English (US)

Audio
ID : 1
Format : WMA
Format version : Version 2
Codec ID : 161
Codec ID/Info : Windows Media Audio
Description of the codec : Windows Media Audio 9.2 - 48 kbps, 44 kHz, mono (A/V) 1-pass CBR
Duration : 1h 25mn
Bit rate mode : Constant
Bit rate : 48.0 Kbps
Channel(s) : 1 channel
Sampling rate : 44.1 KHz
Bit depth : 16 bits
Stream size : 29.3 MiB (33%)
Language : English (US)
Скриншоты:


Время раздачи: 24/7 (круглосуточно) до появления первых скачавших
[NNM-Club.me]_Barantsev - Testirovanie zashchishchennosti veb-prilozheniy (2014).torrent
 Торрент: Платиновая раздача  Зарегистрирован
 
Скачать


Примагнититься
 Зарегистрирован:   20 Апр 2015 12:23:18
 Размер:   404 MB  (
 Рейтинг:   4,9 (Голосов: 90)
 Поблагодарили:   415
 Проверка:   Оформление проверено модератором 20 Апр 2015 20:42:26
Как cкачать  ·  Как раздать  ·  Правильно оформить  ·  Поднять ратио!  
kvantor
Стаж: 9 лет 6 мес.
Сообщений: 57
Ratio: 9,353
Раздал: 4,364 TB
Поблагодарили: 121
100%
Откуда: Москва, Российская Федера
pirates.png
У этого чела самые тру раздачи. ТСу - респект!

_________________
rabb1t1
Стаж: 7 лет 7 мес.
Сообщений: 6
Ratio: 20,892
0%
А есть что нибудь про защиту веб-приложений?
Pljus1
Стаж: 7 лет 8 мес.
Сообщений: 24
Ratio: 107,204
100%
russia.gif
rabb1t1 писал(а): Перейти к сообщению
А есть что нибудь про защиту веб-приложений?

Что-то не встречал (или не помню) тем про web-защиту
Kalesin
Стаж: 8 лет 5 мес.
Сообщений: 4
Ratio: 13,383
100%
russia.gif
kvantor писал(а): Перейти к сообщению
У этого чела самые тру раздачи. ТСу - респект!


Присоединяюсь к мнению. Пришлось даже разжиться вторым жестаком :да:
rabb1t1
Стаж: 7 лет 7 мес.
Сообщений: 6
Ratio: 20,892
0%
Pljus1 писал(а): Перейти к сообщению

Что-то не встречал (или не помню) тем про web-защиту

Вот это печально, что отечественное комьюнити не заморачивается над безопасностью собственных проектов, а покупает проекты(услуги) у западных технологов. А ведь рынок свободный, работы непочатый край, как в плане продажи уроков, так и собственно ПО.
Pureflame ®
Стаж: 7 лет 10 мес.
Сообщений: 217
Ratio: 265,523
Поблагодарили: 23391
100%
Kalesin
Зачем второй жесткий диск?
Можно купить облако у mail.ru - 1ТБ
Kalesin
Стаж: 8 лет 5 мес.
Сообщений: 4
Ratio: 13,383
100%
russia.gif
chemtech писал(а): Перейти к сообщению
Kalesin
Зачем второй жесткий диск?
Можно купить облако у mail.ru - 1ТБ


Предпочитаю МЕГУ, но второй винт все-равно к месту пришелся, ибо сижу на дуал буте, хоть разнес теперь системы по разным дискам
ИгорьКл
Стаж: 7 лет 1 мес.
Сообщений: 2
Ratio: 2,239
16.67%
Большое спасибо! :клево:
BvzBvzBvz
Стаж: 9 лет 3 мес.
Сообщений: 353
Ratio: 2,394
Поблагодарили: 675
100%
brazil.gif
Спасибо, очень понравилось, есть еще в теме?
Показать сообщения:   
Начать новую тему   Ответить на тему    Торрент-трекер NNM-Club -> Обучающие видеоматериалы -> Компьютеры, обуч.видео Часовой пояс: GMT + 3
Страница 1 из 1