Классический форум-трекер
canvas not supported
Нас вместе: 4 074 417

Жизнь робота / Spare Parts (2015) BDRip [H.264/720p] [EN / EN Sub]


 
 
RSS
Начать новую тему   Ответить на тему    Торрент-трекер NNM-Club -> Зарубежное кино -> Фильмы в оригинале (HD, UHD, UHD-LQ)
Автор Сообщение
smaster67 ®
Модератор Видео
Покровитель талантов Uploader 300+
Стаж: 10 лет
Сообщений: 7119
Ratio: 226,009
Поблагодарили: 214787
100%
Жизнь робота / Spare Parts (2015) BDRip [H.264/720p] [EN / EN Sub]

Производство: США
Жанр: драма

Режиссер: Шон МакНамара
Актеры: Джордж Лопес, Джейми Ли Кёртис, Карлос ПенаВега, Мариса Томей, Алекса ПенаВега, Эсай Моралес, Обри К. Миллер, Дэвид Дель Рио, Стивен Майкл Квезада, Х.Р. Вильярреаль, Эмбер Мидфандер, Хосе Джулиан

Описание:
История четырёх мексикано-американских незарегистрированных студентов из Финикса (штат Аризона), которые сформировали клуб робототехники и под руководством своего учителя мечтают выиграть у Массачусетского технологического института в Национальном конкурсе подводной робототехники...



Продолжительность: 01:54:45
Качество видео: BDRip [H.264/720p]
Перевод: Отсутствует
Язык: Английский
Язык субтитров: английский
Вид субтитров: вшитые, отключаемые

Видео: AVC, 1280x720 (16:9), 5306 kbps, 23,976 fps, 0,240 bpp
Аудио: английский / DTS / 5.1 / 48 kHz / 1510 kbps / 24 bit
Код:
General
Unique ID
Complete name                           Spare.Parts.720p.mkv
Format                                   : Matroska
Format version                           : Version 2
File size                                : 5.46 GiB
Duration                                 : 1h 54mn
Overall bit rate                         : 6 814 Kbps
Encoded date                             : UTC 2015-05-21 03:22:41
Writing application                      : mkvmerge v7.9.0 ('Birds') 32bit
Writing library                          : libebml v1.3.1 + libmatroska v1.4.2
DURATION                                 : 01:48:42.849000000
NUMBER_OF_FRAMES                         : 1697
NUMBER_OF_BYTES                          : 62073
_STATISTICS_WRITING_APP                  : mkvmerge v7.9.0 ('Birds') 32bit
_STATISTICS_WRITING_DATE_UTC             : 2015-05-21 03:22:41
_STATISTICS_TAGS                         : BPS DURATION NUMBER_OF_FRAMES NUMBER_OF_BYTES

Video
ID                                       : 1
Format                                   : AVC
Format/Info                              : Advanced Video Codec
Format profile                           : High@L4.1
Format settings, CABAC                   : Yes
Format settings, ReFrames                : 5 frames
Codec ID                                 : V_MPEG4/ISO/AVC
Duration                                 : 1h 54mn
Bit rate                                 : 5 306 Kbps
Width                                    : 1 280 pixels
Height                                   : 720 pixels
Display aspect ratio                     : 16:9
Frame rate                               : 23.976 fps
Color space                              : YUV
Chroma subsampling                       : 4:2:0
Bit depth                                : 8 bits
Scan type                                : Progressive
Bits/(Pixel*Frame)                       : 0.240
Stream size                              : 4.14 GiB (76%)
Writing library                          : x264 core 146 r2538 121396c
Encoding settings                        : cabac=1 / ref=5 / deblock=1:0:0 / analyse=0x3:0x2 / me=umh / subme=7 / psy=1 / psy_rd=1.00:0.00 / mixed_ref=1 / me_range=16 / chroma_me=1 / trellis=1 / 8x8dct=1 / cqm=0 / deadzone=21,11 / fast_pskip=1 / chroma_qp_offset=-2 / threads=12 / lookahead_threads=2 / sliced_threads=0 / nr=0 / decimate=1 / interlaced=0 / bluray_compat=0 / constrained_intra=0 / bframes=3 / b_pyramid=2 / b_adapt=1 / b_bias=0 / direct=1 / weightb=0 / open_gop=0 / weightp=2 / keyint=240 / keyint_min=23 / scenecut=40 / intra_refresh=0 / rc=2pass / mbtree=0 / bitrate=5306 / ratetol=1.0 / qcomp=0.60 / qpmin=10 / qpmax=51 / qpstep=4 / cplxblur=20.0 / qblur=0.5 / ip_ratio=1.40 / pb_ratio=1.30 / aq=1:1.00
Language                                 : English
Default                                  : Yes
Forced                                   : No
DURATION                                 : 01:54:45.963000000
NUMBER_OF_FRAMES                         : 165098
NUMBER_OF_BYTES                          : 4564112759
_STATISTICS_WRITING_APP                  : mkvmerge v7.9.0 ('Birds') 32bit
_STATISTICS_WRITING_DATE_UTC             : 2015-05-21 03:22:41
_STATISTICS_TAGS                         : BPS DURATION NUMBER_OF_FRAMES NUMBER_OF_BYTES

Audio
ID                                       : 2
Format                                   : DTS
Format/Info                              : Digital Theater Systems
Codec ID                                 : A_DTS
Duration                                 : 1h 54mn
Bit rate mode                            : Constant
Bit rate                                 : 1 510 Kbps
Channel(s)                               : 6 channels
Channel positions                        : Front: L C R, Side: L R, LFE
Sampling rate                            : 48.0 KHz
Bit depth                                : 24 bits
Compression mode                         : Lossy
Stream size                              : 1.21 GiB (22%)
Language                                 : English
Default                                  : Yes
Forced                                   : No

Text
ID                                       : 3
Format                                   : UTF-8
Codec ID                                 : S_TEXT/UTF8
Codec ID/Info                            : UTF-8 Plain Text
Language                                 : English
Default                                  : No
Forced                                   : No

Скриншоты:



Время раздачи: с 13:00 до 23:00
[NNM-Club.me]_Spare.Parts.720p.mkv.torrent
 Торрент: Серебряная раздча  Зарегистрирован
 
Зарегистрируйтесь и скачайте торрент!
27,5 KB

Примагнититься
 Зарегистрирован:   21 Май 2015 20:38:15
 Размер:   5,46 GB  (
 Рейтинг:   4 (Голосов: 11)
 Поблагодарили:   33
 Проверка:   Оформление проверено модератором 22 Май 2015 07:24:54
Как cкачать  ·  Как раздать  ·  Правильно оформить  ·  Поднять ратио!  
akamay
Стаж: 7 лет
Сообщений: 420
Ratio: 8,739
100%
Откуда: Горно-Алтайск
ussr.gif
Уже второй фильм про роботов за последнее время. Как бы нашествие их на экраны не началось.

_________________
а что толку, все равно все бессмысленно
Siegfried28
Стаж: 7 лет 8 мес.
Сообщений: 35
Ratio: 25,349
Раздал: 20,15 TB
100%
Откуда: Севастополь
russia.gif
Почему жизнь робота? Если дословно - запасные части! :)
yuliya2003
Стаж: 6 лет 8 мес.
Сообщений: 71
Ratio: 15,144
Раздал: 12,06 TB
46.64%
Откуда: /dev/null
Скриншоты как на подбор! Ну, очень информативно раскрывают тему фильма.
Автор, видимо, очень тщательно отбирал! ;)
xareroma
Стаж: 8 лет 4 мес.
Сообщений: 283
Ratio: 23,268
Поблагодарили: 407
100%
russia.gif
а удобно, слушай, - посмотрел скрины и качать не надо)
на imdb в описании испанские студенты, на поиске мексикосы-америко:сы. переводчики совсем работать не желают? стоит ли смотреть тогда в переводе? :огорчение:
ну да скачаю уж
mcczoom
Стаж: 7 лет 9 мес.
Сообщений: 55
Ratio: 9,008
2.09%
canada.gif
xareroma писал(а): Перейти к сообщению
а удобно, слушай, - посмотрел скрины и качать не надо)
на imdb в описании испанские студенты, на поиске мексикосы-америко:сы. переводчики совсем работать не желают? стоит ли смотреть тогда в переводе? :огорчение:
ну да скачаю уж


spaniard - это испанец

hispanic - слово, которое в 95% случаев используется для обозначения латиноса
John Robot
Стаж: 9 лет 10 мес.
Сообщений: 7
Ratio: 8,827
0%
Где найти с русским переводом?
Показать сообщения:   
Начать новую тему   Ответить на тему    Торрент-трекер NNM-Club -> Зарубежное кино -> Фильмы в оригинале (HD, UHD, UHD-LQ) Часовой пояс: GMT + 3
Страница 1 из 1