Классический форум-трекер
canvas not supported
Нас вместе: 4 079 490

S.K.E.T. - Collection 4 Releases (2005-2017) Hands Productions [FLAC|Lossless]<Rhythmic Noise, Electro, Industrial>


 
 
RSS
Начать новую тему   Ответить на тему    Торрент-трекер NNM-Club -> Electronic -> Experimental, Industrial, EBM, Dark Electro (Lossless)
Автор Сообщение
vilator ®
Модератор Музыки
RG Music
 
Стаж: 10 лет 6 мес.
Сообщений: 9467
Ratio: 178,365
Поблагодарили: 192030
100%
Откуда: Minsk
pirates.png
S.K.E.T.

Основатель проекта - эстонец Kai Christian Hahnewald живущий в Германии, также у него есть свой сайд-проект Talvekoidik.
Жанр: Rhythmic Noise, Electro, Industrial • Страна: Germany • Год издания: 2005-2017 • Лейбл: Hands Productions
Аудиокодек: FLAC (*.flac) • Тип рипа: tracks+.cue • Продолжительность: 04:38:30 • Источник: What, RED
Треклист:
Год выпуска: 2005
Продолжительность: 01:00:03
Треклист:

01. Warholic (05:31)
02. Revolution Of The Pigs (04:19)
03. Center Of Evil (05:39)
04. God Is A Gun (04:58)
05. No Limits For Heroes (05:58)
06. Isolator III (04:32)
07. Komsomolez (04:29)
08. Stalinoper 2004 (04:19)
09. Subbotnik (06:12)
10. Updated Reality (04:08)
11. Non Ballad (04:33)
12. Phreax In Intoxication Of Life (05:25)

Exact Audio Copy V0.99 prebeta 4 from 23. January 2008

EAC extraction logfile from 14. October 2009, 6:10

S.K.E.T. / Aktivist

Used drive : Optiarc DVD RW AD-7201S Adapter: 0 ID: 1

Read mode : Secure
Utilize accurate stream : Yes
Defeat audio cache : Yes
Make use of C2 pointers : No

Read offset correction : 48
Overread into Lead-In and Lead-Out : No
Fill up missing offset samples with silence : Yes
Delete leading and trailing silent blocks : No
Null samples used in CRC calculations : Yes
Used interface : Native Win32 interface for Win NT & 2000
Gap handling : Appended to previous track

Used output format : User Defined Encoder
Selected bitrate : 128 kBit/s
Quality : High
Add ID3 tag : No
Command line compressor : C:\Program Files (x86)\FLAC\flac.exe
Additional command line options : -V -8 -T "artist=%a" -T "title=%t" -T "album=%g" -T "date=%y" -T "tracknumber=%n" -T "genre=%m" %s

TOC of the extracted CD

Track | Start | Length | Start sector | End sector
---------------------------------------------------------
1 | 0:00.00 | 5:30.45 | 0 | 24794
2 | 5:30.45 | 4:19.27 | 24795 | 44246
3 | 9:49.72 | 5:38.53 | 44247 | 69649
4 | 15:28.50 | 4:57.51 | 69650 | 91975
5 | 20:26.26 | 5:57.73 | 91976 | 118823
6 | 26:24.24 | 4:32.13 | 118824 | 139236
7 | 30:56.37 | 4:28.61 | 139237 | 159397
8 | 35:25.23 | 4:18.38 | 159398 | 178785
9 | 39:43.61 | 6:11.53 | 178786 | 206663
10 | 45:55.39 | 4:08.21 | 206664 | 225284
11 | 50:03.60 | 4:33.11 | 225285 | 245770
12 | 54:36.71 | 5:24.74 | 245771 | 270144

Track 1

Filename D:\EAC\S.K.E.T. - 2005 - Aktivist [FLAC]\01 - Warholic.wav

Pre-gap length 0:00:02.00

Peak level 95.5 %
Track quality 100.0 %
Test CRC 8EAA421B
Copy CRC 8EAA421B
Cannot be verified as accurate (confidence 2) [87DA353E], AccurateRip returned [9307B49D]
Copy OK

Track 2

Filename D:\EAC\S.K.E.T. - 2005 - Aktivist [FLAC]\02 - Revolution Of The Pigs.wav

Peak level 95.5 %
Track quality 100.0 %
Test CRC D5E46AF2
Copy CRC D5E46AF2
Cannot be verified as accurate (confidence 2) [087E6FE0], AccurateRip returned [59D4552F]
Copy OK

Track 3

Filename D:\EAC\S.K.E.T. - 2005 - Aktivist [FLAC]\03 - Center Of Evil.wav

Peak level 95.5 %
Track quality 99.9 %
Test CRC 61104A1F
Copy CRC 61104A1F
Cannot be verified as accurate (confidence 2) [D0DFF871], AccurateRip returned [D65957E8]
Copy OK

Track 4

Filename D:\EAC\S.K.E.T. - 2005 - Aktivist [FLAC]\04 - God In A Gun.wav

Peak level 95.5 %
Track quality 100.0 %
Test CRC 5D31A5B8
Copy CRC 5D31A5B8
Cannot be verified as accurate (confidence 2) [63AA90AA], AccurateRip returned [2281145F]
Copy OK

Track 5

Filename D:\EAC\S.K.E.T. - 2005 - Aktivist [FLAC]\05 - No Limits For Heroes.wav

Peak level 95.5 %
Track quality 99.9 %
Test CRC C8103EEF
Copy CRC C8103EEF
Cannot be verified as accurate (confidence 2) [3355CE13], AccurateRip returned [E31EEBA4]
Copy OK

Track 6

Filename D:\EAC\S.K.E.T. - 2005 - Aktivist [FLAC]\06 - Isolator III.wav

Peak level 95.5 %
Track quality 100.0 %
Test CRC 575E0253
Copy CRC 575E0253
Cannot be verified as accurate (confidence 2) [9D5C934F], AccurateRip returned [DC90D5BE]
Copy OK

Track 7

Filename D:\EAC\S.K.E.T. - 2005 - Aktivist [FLAC]\07 - Komsomolez.wav

Peak level 95.5 %
Track quality 100.0 %
Test CRC 6FECC13D
Copy CRC 6FECC13D
Cannot be verified as accurate (confidence 2) [C900285D], AccurateRip returned [9D1B284D]
Copy OK

Track 8

Filename D:\EAC\S.K.E.T. - 2005 - Aktivist [FLAC]\08 - Stalinoper 2004.wav

Peak level 95.5 %
Track quality 100.0 %
Test CRC D31420F9
Copy CRC D31420F9
Cannot be verified as accurate (confidence 2) [F8BA4F1C], AccurateRip returned [B6EDA11A]
Copy OK

Track 9

Filename D:\EAC\S.K.E.T. - 2005 - Aktivist [FLAC]\09 - Subbotnik.wav

Peak level 95.5 %
Track quality 100.0 %
Test CRC C55B24FD
Copy CRC C55B24FD
Cannot be verified as accurate (confidence 2) [3694FBE0], AccurateRip returned [9C5A6D1B]
Copy OK

Track 10

Filename D:\EAC\S.K.E.T. - 2005 - Aktivist [FLAC]\10 - Updated Reality.wav

Peak level 95.5 %
Track quality 100.0 %
Test CRC 9703BC48
Copy CRC 9703BC48
Cannot be verified as accurate (confidence 2) [C24AD6C4], AccurateRip returned [8F086E41]
Copy OK

Track 11

Filename D:\EAC\S.K.E.T. - 2005 - Aktivist [FLAC]\11 - Non Ballad.wav

Peak level 95.5 %
Track quality 100.0 %
Test CRC 8F8A4D1A
Copy CRC 8F8A4D1A
Cannot be verified as accurate (confidence 2) [EA8DCE62], AccurateRip returned [8505E547]
Copy OK

Track 12

Filename D:\EAC\S.K.E.T. - 2005 - Aktivist [FLAC]\12 - Intoxication of Life.wav

Peak level 95.5 %
Track quality 100.0 %
Test CRC 0C341AF5
Copy CRC 0C341AF5
Cannot be verified as accurate (confidence 2) [75A4D3CF], AccurateRip returned [9C8792B0]
Copy OK

No tracks could be verified as accurate
You may have a different pressing from the one(s) in the database

No errors occurred

End of status report


REM GENRE Industrial
REM DATE 2005
REM DISCID AB0E110C
REM COMMENT "ExactAudioCopy v0.99pb4"
FILE "01 - Warholic.wav" WAVE
TRACK 01 AUDIO
INDEX 01 00:00:00
FILE "02 - Revolution Of The Pigs.wav" WAVE
TRACK 02 AUDIO
INDEX 01 00:00:00
FILE "03 - Center Of Evil.wav" WAVE
TRACK 03 AUDIO
INDEX 01 00:00:00
FILE "04 - God In A Gun.wav" WAVE
TRACK 04 AUDIO
INDEX 01 00:00:00
FILE "05 - No Limits For Heroes.wav" WAVE
TRACK 05 AUDIO
INDEX 01 00:00:00
FILE "06 - Isolator III.wav" WAVE
TRACK 06 AUDIO
INDEX 01 00:00:00
FILE "07 - Komsomolez.wav" WAVE
TRACK 07 AUDIO
INDEX 01 00:00:00
FILE "08 - Stalinoper 2004.wav" WAVE
TRACK 08 AUDIO
INDEX 01 00:00:00
FILE "09 - Subbotnik.wav" WAVE
TRACK 09 AUDIO
INDEX 01 00:00:00
FILE "10 - Updated Reality.wav" WAVE
TRACK 10 AUDIO
INDEX 01 00:00:00
FILE "11 - Non Ballad.wav" WAVE
TRACK 11 AUDIO
INDEX 01 00:00:00
FILE "12 - Intoxication of Life.wav" WAVE
TRACK 12 AUDIO
INDEX 01 00:00:00
Год выпуска: 2006
Продолжительность: 01:17:20
Треклист:

01. Sputnikschock (04:20)
02. Luna (Isolator 4 Edit) (04:02)
03. Vostok I (Gagarins Flight Pt. 1) (04:12)
04. Vostok I (Gagarins Flight Pt. 2) (02:10)
05. Vostok I (Gagarins Flight Pt. 3) (03:11)
06. Elektron (Behind The Truth) (04:17)
07. Proton-K (05:39)
08. Zond (04:23)
09. Progress (05:17)
10. Kosmos 1101/c? (04:23)
11. Meteor 2-5 (04:55)
12. Sojus 11† (05:28)
13. Tsiklon-3 (05:01)
14. Salyut 6 (05:46)
15. Mir (05:36)
16. Fobos 1 (04:11)
17. Soljaris (04:29)

Exact Audio Copy V1.0 beta 3 from 29. August 2011

EAC extraction logfile from 17. November 2011, 21:23

S.K.E.T. / Baikonur

Used drive : PHILIPS DVD+-RW DVD8631 Adapter: 0 ID: 1

Read mode : Secure
Utilize accurate stream : Yes
Defeat audio cache : Yes
Make use of C2 pointers : No

Read offset correction : 618
Overread into Lead-In and Lead-Out : No
Fill up missing offset samples with silence : Yes
Delete leading and trailing silent blocks : No
Null samples used in CRC calculations : Yes
Used interface : Installed external ASPI interface
Gap handling : Appended to previous track

Used output format : Internal WAV Routines
Sample format : 44.100 Hz; 16 Bit; Stereo

TOC of the extracted CD

Track | Start | Length | Start sector | End sector
---------------------------------------------------------
1 | 0:00.00 | 4:19.48 | 0 | 19472
2 | 4:19.48 | 4:01.58 | 19473 | 37605
3 | 8:21.31 | 4:12.18 | 37606 | 56523
4 | 12:33.49 | 2:10.30 | 56524 | 66303
5 | 14:44.04 | 3:11.36 | 66304 | 80664
6 | 17:55.40 | 4:17.20 | 80665 | 99959
7 | 22:12.60 | 5:38.58 | 99960 | 125367
8 | 27:51.43 | 4:23.00 | 125368 | 145092
9 | 32:14.43 | 5:17.26 | 145093 | 168893
10 | 37:31.69 | 4:22.66 | 168894 | 188609
11 | 41:54.60 | 4:55.10 | 188610 | 210744
12 | 46:49.70 | 5:27.68 | 210745 | 235337
13 | 52:17.63 | 5:01.12 | 235338 | 257924
14 | 57:19.00 | 5:45.64 | 257925 | 283863
15 | 63:04.64 | 5:36.00 | 283864 | 309063
16 | 68:40.64 | 4:10.63 | 309064 | 327876
17 | 72:51.52 | 4:29.14 | 327877 | 348065

Track 1

Filename D:\S.K.E.T. - 2006 - Baikonur\01. Sputnikschock.wav

Pre-gap length 0:00:02.00

Peak level 96.6 %
Extraction speed 4.6 X
Track quality 100.0 %
Test CRC 4D256150
Copy CRC 4D256150
Accurately ripped (confidence 4) [04BD4C91] (AR v1)
Copy OK

Track 2

Filename D:\S.K.E.T. - 2006 - Baikonur\02. Luna (Isolator 4 Edit).wav

Peak level 96.6 %
Extraction speed 5.1 X
Track quality 100.0 %
Test CRC A05C6FE8
Copy CRC A05C6FE8
Accurately ripped (confidence 4) [4925A369] (AR v1)
Copy OK

Track 3

Filename D:\S.K.E.T. - 2006 - Baikonur\03. Vostok I (Gagarins Flight Pt. 1).wav

Peak level 96.6 %
Extraction speed 5.5 X
Track quality 100.0 %
Test CRC 8D8A3515
Copy CRC 8D8A3515
Accurately ripped (confidence 4) [10FD935C] (AR v1)
Copy OK

Track 4

Filename D:\S.K.E.T. - 2006 - Baikonur\04. Vostok I (Gagarins Flight Pt. 2).wav

Peak level 96.6 %
Extraction speed 5.1 X
Track quality 100.0 %
Test CRC 404AFA68
Copy CRC 404AFA68
Accurately ripped (confidence 4) [2FC8C0C0] (AR v1)
Copy OK

Track 5

Filename D:\S.K.E.T. - 2006 - Baikonur\05. Vostok I (Gagarins Flight Pt. 3).wav

Peak level 96.6 %
Extraction speed 5.7 X
Track quality 100.0 %
Test CRC 69DB7FA9
Copy CRC 69DB7FA9
Accurately ripped (confidence 4) [67E294E3] (AR v1)
Copy OK

Track 6

Filename D:\S.K.E.T. - 2006 - Baikonur\06. Elektron (Behind The Truth).wav

Peak level 96.6 %
Extraction speed 5.3 X
Track quality 99.9 %
Test CRC 3D9A9203
Copy CRC 3D9A9203
Accurately ripped (confidence 4) [106AD1FE] (AR v1)
Copy OK

Track 7

Filename D:\S.K.E.T. - 2006 - Baikonur\07. Proton-K.wav

Peak level 96.6 %
Extraction speed 6.8 X
Track quality 100.0 %
Test CRC 3960F102
Copy CRC 3960F102
Accurately ripped (confidence 4) [47C9B220] (AR v1)
Copy OK

Track 8

Filename D:\S.K.E.T. - 2006 - Baikonur\08. Zond.wav

Peak level 96.6 %
Extraction speed 6.9 X
Track quality 100.0 %
Test CRC EDD5B3B3
Copy CRC EDD5B3B3
Accurately ripped (confidence 4) [815EFEC0] (AR v1)
Copy OK

Track 9

Filename D:\S.K.E.T. - 2006 - Baikonur\09. Progress.wav

Peak level 96.6 %
Extraction speed 7.4 X
Track quality 100.0 %
Test CRC 1A01D809
Copy CRC 1A01D809
Accurately ripped (confidence 4) [673076AD] (AR v1)
Copy OK

Track 10

Filename D:\S.K.E.T. - 2006 - Baikonur\10. Kosmos 1101c3.wav

Peak level 96.6 %
Extraction speed 7.5 X
Track quality 100.0 %
Test CRC 10602D10
Copy CRC 10602D10
Accurately ripped (confidence 4) [9355CE34] (AR v1)
Copy OK

Track 11

Filename D:\S.K.E.T. - 2006 - Baikonur\11. Meteor 2-5.wav

Peak level 96.6 %
Extraction speed 6.8 X
Track quality 99.9 %
Test CRC 9BAF3C61
Copy CRC 9BAF3C61
Accurately ripped (confidence 4) [A6D0A7C6] (AR v1)
Copy OK

Track 12

Filename D:\S.K.E.T. - 2006 - Baikonur\12. Sojus 11.wav

Peak level 96.6 %
Extraction speed 8.2 X
Track quality 100.0 %
Test CRC 50F14DEF
Copy CRC 50F14DEF
Accurately ripped (confidence 4) [A116AB81] (AR v1)
Copy OK

Track 13

Filename D:\S.K.E.T. - 2006 - Baikonur\13. Tsiklon-3.wav

Peak level 96.6 %
Extraction speed 8.4 X
Track quality 100.0 %
Test CRC 926FAEE0
Copy CRC 926FAEE0
Accurately ripped (confidence 4) [3FAAF128] (AR v1)
Copy OK

Track 14

Filename D:\S.K.E.T. - 2006 - Baikonur\14. Salyut 6.wav

Peak level 96.6 %
Extraction speed 8.7 X
Track quality 100.0 %
Test CRC B57CE672
Copy CRC B57CE672
Accurately ripped (confidence 4) [CD9F6F1B] (AR v1)
Copy OK

Track 15

Filename D:\S.K.E.T. - 2006 - Baikonur\15. Mir.wav

Peak level 96.6 %
Extraction speed 7.9 X
Track quality 99.9 %
Test CRC C8653B9A
Copy CRC C8653B9A
Accurately ripped (confidence 4) [B8D5106D] (AR v1)
Copy OK

Track 16

Filename D:\S.K.E.T. - 2006 - Baikonur\16. Fobos 1.wav

Peak level 96.6 %
Extraction speed 8.9 X
Track quality 100.0 %
Test CRC 5D9CC7E3
Copy CRC 5D9CC7E3
Accurately ripped (confidence 4) [DD407869] (AR v1)
Copy OK

Track 17

Filename D:\S.K.E.T. - 2006 - Baikonur\17. Soljaris.wav

Peak level 96.6 %
Extraction speed 5.1 X
Track quality 100.0 %
Test CRC 7F88F48C
Copy CRC 7F88F48C
Accurately ripped (confidence 4) [7489798A] (AR v1)
Copy OK

All tracks accurately ripped

No errors occurred

End of status report

==== Log checksum D9F8E975C27F92901B0A8C1FCDD57ADB21750892DD83F978D77FE356FD0A9DEB ====


REM GENRE "Rhythmic Noise, Electro "
REM DATE 2006
REM DISCID EC122011
REM COMMENT "ExactAudioCopy v1.0b3"
PERFORMER "S.K.E.T."
TITLE "Baikonur"
FILE "01. Sputnikschock.wav" WAVE
TRACK 01 AUDIO
TITLE "Sputnikschock"
PERFORMER "S.K.E.T."
INDEX 01 00:00:00
FILE "02. Luna (Isolator 4 Edit).wav" WAVE
TRACK 02 AUDIO
TITLE "Luna (Isolator 4 Edit)"
PERFORMER "S.K.E.T."
FLAGS DCP
INDEX 01 00:00:00
FILE "03. Vostok I (Gagarins Flight Pt. 1).wav" WAVE
TRACK 03 AUDIO
TITLE "Vostok I (Gagarins Flight Pt. 1)"
PERFORMER "S.K.E.T."
FLAGS DCP
INDEX 01 00:00:00
FILE "04. Vostok I (Gagarins Flight Pt. 2).wav" WAVE
TRACK 04 AUDIO
TITLE "Vostok I (Gagarins Flight Pt. 2)"
PERFORMER "S.K.E.T."
FLAGS DCP
INDEX 01 00:00:00
FILE "05. Vostok I (Gagarins Flight Pt. 3).wav" WAVE
TRACK 05 AUDIO
TITLE "Vostok I (Gagarins Flight Pt. 3)"
PERFORMER "S.K.E.T."
FLAGS DCP
INDEX 01 00:00:00
FILE "06. Elektron (Behind The Truth).wav" WAVE
TRACK 06 AUDIO
TITLE "Elektron (Behind The Truth)"
PERFORMER "S.K.E.T."
FLAGS DCP
INDEX 01 00:00:00
FILE "07. Proton-K.wav" WAVE
TRACK 07 AUDIO
TITLE "Proton-K"
PERFORMER "S.K.E.T."
FLAGS DCP
INDEX 01 00:00:00
FILE "08. Zond.wav" WAVE
TRACK 08 AUDIO
TITLE "Zond"
PERFORMER "S.K.E.T."
FLAGS DCP
INDEX 01 00:00:00
FILE "09. Progress.wav" WAVE
TRACK 09 AUDIO
TITLE "Progress"
PERFORMER "S.K.E.T."
FLAGS DCP
INDEX 01 00:00:00
FILE "10. Kosmos 1101c3.wav" WAVE
TRACK 10 AUDIO
TITLE "Kosmos 1101c3"
PERFORMER "S.K.E.T."
FLAGS DCP
INDEX 01 00:00:00
FILE "11. Meteor 2-5.wav" WAVE
TRACK 11 AUDIO
TITLE "Meteor 2-5"
PERFORMER "S.K.E.T."
FLAGS DCP
INDEX 01 00:00:00
FILE "12. Sojus 11.wav" WAVE
TRACK 12 AUDIO
TITLE "Sojus 11"
PERFORMER "S.K.E.T."
FLAGS DCP
INDEX 01 00:00:00
FILE "13. Tsiklon-3.wav" WAVE
TRACK 13 AUDIO
TITLE "Tsiklon-3"
PERFORMER "S.K.E.T."
FLAGS DCP
INDEX 01 00:00:00
FILE "14. Salyut 6.wav" WAVE
TRACK 14 AUDIO
TITLE "Salyut 6"
PERFORMER "S.K.E.T."
FLAGS DCP
INDEX 01 00:00:00
FILE "15. Mir.wav" WAVE
TRACK 15 AUDIO
TITLE "Mir"
PERFORMER "S.K.E.T."
FLAGS DCP
INDEX 01 00:00:00
FILE "16. Fobos 1.wav" WAVE
TRACK 16 AUDIO
TITLE "Fobos 1"
PERFORMER "S.K.E.T."
FLAGS DCP
INDEX 01 00:00:00
FILE "17. Soljaris.wav" WAVE
TRACK 17 AUDIO
TITLE "Soljaris"
PERFORMER "S.K.E.T."
FLAGS DCP
INDEX 01 00:00:00

Год выпуска: 2009
Продолжительность: 01:14:07
Треклист:

01. Basrah ER (07:56)
02. 700.000 Tons To Wipe Out Humankind (04:42)
03. Highway Of Death (04:55)
04. How DU Works (05:34)
05. Ethical Isolator 16 (05:12)
06. Crispy Critters 91 (05:09)
07. Crispy Critters 03 (05:52)
08. Hidden Looming Worldwide Calamity (05:28)
09. Four BN Years Of Congenital Deformities (04:13)
10. The Business Of War (04:35)
11. Alpha Emitter (04:50)
12. Is The Baby Normal? (05:52)
13. Balkan Syndrome (04:52)
14. Bush To The Hague (04:57)

Exact Audio Copy V1.0 beta 3 from 29. August 2011

EAC extraction logfile from 21. December 2013, 22:17

S.K.E.T. / Depleted Uranium Weapons

Used drive : TSSTcorpCDDVDW SH-222BB Adapter: 1 ID: 0

Read mode : Secure
Utilize accurate stream : Yes
Defeat audio cache : Yes
Make use of C2 pointers : No

Read offset correction : 6
Overread into Lead-In and Lead-Out : No
Fill up missing offset samples with silence : Yes
Delete leading and trailing silent blocks : No
Null samples used in CRC calculations : Yes
Used interface : Native Win32 interface for Win NT & 2000
Gap handling : Appended to previous track

Used output format : User Defined Encoder
Selected bitrate : 1024 kBit/s
Quality : High
Add ID3 tag : No
Command line compressor : C:\Program Files (x86)\Exact Audio Copy\FLAC\FLAC.EXE
Additional command line options : -8 -V -T "ARTIST=%artist%" -T "TITLE=%title%" -T "ALBUM=%albumtitle%" -T "DATE=%year%" -T "TRACKNUMBER=%tracknr%" -T "GENRE=%genre%" -T "PERFORMER=%albuminterpret%" -T "COMPOSER=%composer%" %haslyrics%--tag-from-file=LYRICS="%lyricsfile%"%haslyrics% -T "ALBUMARTIST=%albumartist%" -T "DISCNUMBER=%cdnumber%" -T "TOTALDISCS=%totalcds%" -T "TOTALTRACKS=%numtracks%" -T "COMMENT=%comment%" %source% -o %dest%

TOC of the extracted CD

Track | Start | Length | Start sector | End sector
---------------------------------------------------------
1 | 0:00.00 | 7:55.73 | 0 | 35697
2 | 7:55.73 | 4:42.12 | 35698 | 56859
3 | 12:38.10 | 4:55.34 | 56860 | 79018
4 | 17:33.44 | 5:33.62 | 79019 | 104055
5 | 23:07.31 | 5:11.46 | 104056 | 127426
6 | 28:19.02 | 5:08.69 | 127427 | 150595
7 | 33:27.71 | 5:51.63 | 150596 | 176983
8 | 39:19.59 | 5:28.17 | 176984 | 201600
9 | 44:48.01 | 4:13.20 | 201601 | 220595
10 | 49:01.21 | 4:35.14 | 220596 | 241234
11 | 53:36.35 | 4:50.05 | 241235 | 262989
12 | 58:26.40 | 5:52.21 | 262990 | 289410
13 | 64:18.61 | 4:51.57 | 289411 | 311292
14 | 69:10.43 | 4:57.05 | 311293 | 333572

Track 1

Filename D:\rip\S.K.E.T - 2009 - Depleted Uranium Weapons [cdflac]\01 - Basrah Er.wav

Pre-gap length 0:00:02.00

Peak level 99.3 %
Extraction speed 5.3 X
Track quality 100.0 %
Test CRC 49F2238F
Copy CRC 49F2238F
Accurately ripped (confidence 4) [62532A5C] (AR v1)
Copy OK

Track 2

Filename D:\rip\S.K.E.T - 2009 - Depleted Uranium Weapons [cdflac]\02 - 700.00 Tons To Wipe Out Humankind.wav

Peak level 99.3 %
Extraction speed 4.7 X
Track quality 99.9 %
Test CRC 6DBA1C00
Copy CRC 6DBA1C00
Accurately ripped (confidence 4) [08FF0D94] (AR v1)
Copy OK

Track 3

Filename D:\rip\S.K.E.T - 2009 - Depleted Uranium Weapons [cdflac]\03 - Highway Of Death.wav

Peak level 99.3 %
Extraction speed 5.1 X
Track quality 99.9 %
Test CRC 92A61C61
Copy CRC 92A61C61
Accurately ripped (confidence 4) [38B501E1] (AR v1)
Copy OK

Track 4

Filename D:\rip\S.K.E.T - 2009 - Depleted Uranium Weapons [cdflac]\04 - How DU Works.wav

Peak level 99.3 %
Extraction speed 6.7 X
Track quality 100.0 %
Test CRC 256F1923
Copy CRC 256F1923
Accurately ripped (confidence 4) [10E13A02] (AR v1)
Copy OK

Track 5

Filename D:\rip\S.K.E.T - 2009 - Depleted Uranium Weapons [cdflac]\05 - Ethical Isolator 16.wav

Peak level 99.3 %
Extraction speed 7.1 X
Track quality 100.0 %
Test CRC EA8EA743
Copy CRC EA8EA743
Accurately ripped (confidence 4) [A1AA5C3B] (AR v1)
Copy OK

Track 6

Filename D:\rip\S.K.E.T - 2009 - Depleted Uranium Weapons [cdflac]\06 - Crispy Critters 91.wav

Peak level 98.4 %
Extraction speed 7.4 X
Track quality 100.0 %
Test CRC 9C6E934C
Copy CRC 9C6E934C
Accurately ripped (confidence 4) [7B8624D1] (AR v1)
Copy OK

Track 7

Filename D:\rip\S.K.E.T - 2009 - Depleted Uranium Weapons [cdflac]\07 - Crispy Critters 03.wav

Peak level 99.3 %
Extraction speed 8.0 X
Track quality 100.0 %
Test CRC 00EFA165
Copy CRC 00EFA165
Accurately ripped (confidence 4) [720685B6] (AR v1)
Copy OK

Track 8

Filename D:\rip\S.K.E.T - 2009 - Depleted Uranium Weapons [cdflac]\08 - Hidden Looming Worldwide Calamity.wav

Peak level 99.3 %
Extraction speed 8.3 X
Track quality 100.0 %
Test CRC C30EEEE6
Copy CRC C30EEEE6
Accurately ripped (confidence 4) [ED830A24] (AR v1)
Copy OK

Track 9

Filename D:\rip\S.K.E.T - 2009 - Depleted Uranium Weapons [cdflac]\09 - Four BN Years of Congenital Deformities.wav

Peak level 99.3 %
Extraction speed 6.6 X
Track quality 99.9 %
Test CRC BE716038
Copy CRC BE716038
Accurately ripped (confidence 4) [3A853163] (AR v1)
Copy OK

Track 10

Filename D:\rip\S.K.E.T - 2009 - Depleted Uranium Weapons [cdflac]\10 - The Business Of War.wav

Peak level 99.3 %
Extraction speed 7.0 X
Track quality 99.9 %
Test CRC F0E62CDF
Copy CRC F0E62CDF
Accurately ripped (confidence 4) [93E43EBC] (AR v1)
Copy OK

Track 11

Filename D:\rip\S.K.E.T - 2009 - Depleted Uranium Weapons [cdflac]\11 - Alpha Emitter.wav

Peak level 99.3 %
Extraction speed 9.0 X
Track quality 100.0 %
Test CRC F1640B75
Copy CRC F1640B75
Accurately ripped (confidence 4) [45FA70FC] (AR v1)
Copy OK

Track 12

Filename D:\rip\S.K.E.T - 2009 - Depleted Uranium Weapons [cdflac]\12 - Is The Baby Normal.wav

Peak level 99.3 %
Extraction speed 8.0 X
Track quality 99.9 %
Test CRC 6BBFF35B
Copy CRC 6BBFF35B
Accurately ripped (confidence 4) [C08EEF28] (AR v1)
Copy OK

Track 13

Filename D:\rip\S.K.E.T - 2009 - Depleted Uranium Weapons [cdflac]\13 - Balkan Syndrome.wav

Peak level 99.3 %
Extraction speed 9.6 X
Track quality 100.0 %
Test CRC 251545C9
Copy CRC 251545C9
Accurately ripped (confidence 4) [9EFA1ADE] (AR v1)
Copy OK

Track 14

Filename D:\rip\S.K.E.T - 2009 - Depleted Uranium Weapons [cdflac]\14 - Bush To The Hague.wav

Peak level 99.3 %
Extraction speed 9.9 X
Track quality 100.0 %
Test CRC 6F74D57B
Copy CRC 6F74D57B
Accurately ripped (confidence 4) [FEC52B2A] (AR v1)
Copy OK

All tracks accurately ripped

No errors occurred

End of status report

==== Log checksum 792422AB9CEDF9C6A8651E88B2C543FFB5307F18A0BC814CD44F051D7FD3EE47 ====


REM GENRE Electronic
REM DATE 2009
REM DISCID BF115F0E
REM COMMENT "ExactAudioCopy v1.0b3"
PERFORMER "S.K.E.T."
TITLE "Depleted Uranium Weapons"
FILE "01 - Basrah Er.wav" WAVE
TRACK 01 AUDIO
TITLE "Basrah Er"
PERFORMER "S.K.E.T."
INDEX 01 00:00:00
FILE "02 - 700.00 Tons To Wipe Out Humankind.wav" WAVE
TRACK 02 AUDIO
TITLE "700.00 Tons To Wipe Out Humankind"
PERFORMER "S.K.E.T."
INDEX 01 00:00:00
FILE "03 - Highway Of Death.wav" WAVE
TRACK 03 AUDIO
TITLE "Highway Of Death"
PERFORMER "S.K.E.T."
INDEX 01 00:00:00
FILE "04 - How DU Works.wav" WAVE
TRACK 04 AUDIO
TITLE "How DU Works"
PERFORMER "S.K.E.T."
INDEX 01 00:00:00
FILE "05 - Ethical Isolator 16.wav" WAVE
TRACK 05 AUDIO
TITLE "Ethical Isolator 16"
PERFORMER "S.K.E.T."
INDEX 01 00:00:00
FILE "06 - Crispy Critters 91.wav" WAVE
TRACK 06 AUDIO
TITLE "Crispy Critters 91"
PERFORMER "S.K.E.T."
INDEX 01 00:00:00
FILE "07 - Crispy Critters 03.wav" WAVE
TRACK 07 AUDIO
TITLE "Crispy Critters 03"
PERFORMER "S.K.E.T."
INDEX 01 00:00:00
FILE "08 - Hidden Looming Worldwide Calamity.wav" WAVE
TRACK 08 AUDIO
TITLE "Hidden Looming Worldwide Calamity"
PERFORMER "S.K.E.T."
INDEX 01 00:00:00
FILE "09 - Four BN Years of Congenital Deformities.wav" WAVE
TRACK 09 AUDIO
TITLE "Four BN Years of Congenital Deformities"
PERFORMER "S.K.E.T."
INDEX 01 00:00:00
FILE "10 - The Business Of War.wav" WAVE
TRACK 10 AUDIO
TITLE "The Business Of War"
PERFORMER "S.K.E.T."
INDEX 01 00:00:00
FILE "11 - Alpha Emitter.wav" WAVE
TRACK 11 AUDIO
TITLE "Alpha Emitter"
PERFORMER "S.K.E.T."
INDEX 01 00:00:00
FILE "12 - Is The Baby Normal.wav" WAVE
TRACK 12 AUDIO
TITLE "Is The Baby Normal?"
PERFORMER "S.K.E.T."
INDEX 01 00:00:00
FILE "13 - Balkan Syndrome.wav" WAVE
TRACK 13 AUDIO
TITLE "Balkan Syndrome"
PERFORMER "S.K.E.T."
INDEX 01 00:00:00
FILE "14 - Bush To The Hague.wav" WAVE
TRACK 14 AUDIO
TITLE "Bush To The Hague"
PERFORMER "S.K.E.T."
INDEX 01 00:00:00

Время раздачи: 12/7
[NNMClub.to]_S.K.E.T FLAC.torrent
 Торрент: Платиновая раздача  Зарегистрирован
 
Скачать


Примагнититься
 Зарегистрирован:   08 Авг 2019 06:34:40
 Размер:   2,12 GB  (
 Рейтинг:    (Голосов: 8)
 Поблагодарили:   42
 Проверка:   Оформление проверено модератором 08 Авг 2019 06:35:06
Как cкачать  ·  Как раздать  ·  Правильно оформить  ·  Поднять ратио!  
vilator ®
Модератор Музыки
RG Music
 
Стаж: 10 лет 6 мес.
Сообщений: 9467
Ratio: 178,365
Поблагодарили: 192030
100%
Откуда: Minsk
pirates.png
Раздача обновлена полностью, просьба перекачать заново.
Показать сообщения:   
Начать новую тему   Ответить на тему    Торрент-трекер NNM-Club -> Electronic -> Experimental, Industrial, EBM, Dark Electro (Lossless) Часовой пояс: GMT + 3
Страница 1 из 1