Интеллигентный торрент-трекер
canvas not supported
Нас вместе: 4 193 058

Soukyuu no Fafner: Dead Aggressor - Exodus | Небесный Фафнир: Исход [2015, TV, 26 эп.] BDRip 1080p HEVC raw


 
 
RSS
Начать новую тему   Ответить на тему    Торрент-трекер NNM-Club -> Аниме сериалы -> HD и BDRip
Автор Сообщение
loki ®
Стаж: 6 лет
Сообщений: 4601
Ratio: 78,024
Поблагодарили: 31607
100%
Откуда: Днепр
roody.gif
蒼穹のファフナー Dead Aggressor EXODUS
Soukyuu no Fafner: Dead Aggressor - Exodus
Небесный Фафнир: Исход

Жанр: приключения,фантастика, меха
Тип: ТВ-сериал
Продолжительность: 26 эп., 25 мин.
Выпуск: c 09.01.2015
Производство: Xebec
Режиссер: Хабара Нобуёси
Ссылки: World-Art, Ani-DB, MAL, ANN
Описание:
Продолжение повествования. События разворачиваются спустя два года после происходившего в фильме Небесный Фафнир: Мёртвый Агрессор - Рай и Земля.
Сюжет рассказывал о смертельном противостоянии инопланетных чудовищ, известных как «Фестумы» и остатков человечества Земли.
При этом главным козырем выживших землян как всегда выступали гигантские боевые роботы, пилотируемые подростками с особыми ментальными способностями.
Релиз: TxxZ&A.I.R.nesSub
Формат: MKV
Качаство видео: BDRip
Видео: h.265, 1920x1080, 23.976 fps, х/з kbps, HEVC
Аудио: FLAC, 2 ch, 48 kHz, х/з kbps | Язык: Японский
Субтитры: русские от Yakusub Studio | Хардсаб: отсутствует

Скриншоты:
Код: выделить все
General
Unique ID                   : 187379941011081363269346722442369926106 (0x8CF8105E2E207954839B08EC271183DA)
Complete name               : [01][Full_Size][BDRIP][1920x1080][HEVC_Ma10P_FLAC].mkv
Format                      : Matroska
Format version              : Version 4 / Version 2
File size                   : 1.44 GiB
Duration                    : 35 min 51 s
Overall bit rate mode       : Variable
Overall bit rate            : 5 743 kb/s
Movie name                  : 蒼穹のファフナー Exodus 第1話 「来訪者」
Encoded date                : UTC 2015-10-02 12:52:25
Writing application         : mkvmerge v8.4.0 ('A better way to fly') 64bit
Writing library             : libebml v1.3.1 + libmatroska v1.4.2

Video
ID                          : 1
Format                      : HEVC
Format/Info                 : High Efficiency Video Coding
Format profile              : Main 10@L4.1@Main
Codec ID                    : V_MPEGH/ISO/HEVC
Duration                    : 35 min 51 s
Bit rate                    : 4 271 kb/s
Width                       : 1 920 pixels
Height                      : 1 080 pixels
Display aspect ratio        : 16:9
Frame rate mode             : Constant
Frame rate                  : 23.976 (24000/1001) FPS
Color space                 : YUV
Chroma subsampling          : 4:2:0
Bit depth                   : 10 bits
Bits/(Pixel*Frame)          : 0.086
Stream size                 : 1.07 GiB (74%)
Writing library             : x265 1.7+448-d8091487bc97:[Windows][GCC 4.8.2][64 bit] 10bit
Encoding settings           : wpp / ctu=64 / min-cu-size=8 / max-tu-size=32 / tu-intra-depth=3 / tu-inter-depth=3 / me=2 / subme=3 / merange=57 / no-rect / no-amp / max-merge=3 / temporal-mvp / no-early-skip / rdpenalty=1 / no-tskip / no-tskip-fast / no-strong-intra-smoothing / no-lossless / no-cu-lossless / no-constrained-intra / no-fast-intra / open-gop / no-temporal-layers / interlace=0 / keyint=240 / min-keyint=1 / scenecut=40 / rc-lookahead=96 / lookahead-slices=0 / bframes=8 / bframe-bias=0 / b-adapt=2 / ref=3 / limit-refs=0 / weightp / weightb / aq-mode=1 / qg-size=32 / aq-strength=1.10 / cbqpoffs=0 / crqpoffs=0 / rd=5 / psy-rd=1.10 / rdoq-level=2 / psy-rdoq=4.00 / signhide / deblock=-1:-1 / no-sao / no-sao-non-deblock / b-pyramid / cutree / rc=crf / crf=17.0 / qcomp=0.80 / qpmin=0 / qpmax=51 / qpstep=4 / vbv-maxrate=20000 / vbv-bufsize=20000 / crf-max=0.0 / ipratio=1.40 / pbratio=1.30
Language                    : Japanese
Default                     : Yes
Forced                      : No

Audio
ID                          : 2
Format                      : FLAC
Format/Info                 : Free Lossless Audio Codec
Codec ID                    : A_FLAC
Duration                    : 35 min 51 s
Bit rate mode               : Variable
Bit rate                    : 1 470 kb/s
Channel(s)                  : 2 channels
Channel positions           : Front: L R
Sampling rate               : 48.0 kHz
Frame rate                  : 11.719 FPS (4096 spf)
Bit depth                   : 24 bits
Stream size                 : 377 MiB (26%)
Title                       : 本編音声
Writing library             : libFLAC 1.2.1 (UTC 2007-09-17)
Language                    : Japanese
Default                     : Yes
Forced                      : No

Menu
00:00:00.000                : ja:Aパート
00:15:32.515                : ja:Bパート
00:35:44.809                : ja:予告
  • 1 Visitor
  • 2 The Name of Hope
  • 3 The Price of a Conversation
  • 4 The Successors
  • 5 To a New World
  • 6 Blessed Time
  • 7 Battle in a New Dimension
  • 8 Dreaming of Peace
  • 9 The Two Heroes
  • 10 To the Land of Hope
  • 11 Transformation
  • 12 Children of the Battlefield
  • 13 A Future Within the Darkness
  • 1 (14) The March for Dawn
  • 2 (15) ROE Alpha
  • 3 (16) Where Life Is
  • 4 (17) Flames of the Final Farewell
  • 5 (18) Layering Sins Upon Sins
  • 6 (19) The Oath of the Living
  • 7 (20) The Soldiers Return Home
  • 8 (21) Time of Awakening
  • 9 (22) Memories of Hatred
  • 10 (23) Power Without Reason
  • 11 (24) The Third Alvis
  • 12 (25) Azure Sky Plan
  • 13 (26) Tatsumiyajima
Время раздачи: х/з
[NNMClub.to]_[TxxZ&A.I.R.nesSub][Soukyuu_no_Fafner_Exodus][1080P][BDRIP].torrent
 Торрент: Золотая раздача  Зарегистрирован
 
Примагнититься

Зарегистрируйтесь и скачайте торрент!
270 KB
 Зарегистрирован:   11 Янв 2017 18:14:54
 Размер:   49,9 GB  (
 Рейтинг:   3,6 (Голосов: 38)
 Поблагодарили:   39
 Проверка:   Оформление проверено модератором 11 Янв 2017 18:56:05
Как cкачать  ·  Как раздать  ·  Правильно оформить  ·  Поднять ратио!  


Последний раз редактировалось: loki (11 Янв 2017 18:11:36), всего редактировалось 8 раз(а)
loki ®
Стаж: 6 лет
Сообщений: 4601
Ratio: 78,024
Поблагодарили: 31607
100%
Откуда: Днепр
roody.gif
Добавлены серии (второй сезон):
1 (14) The March for Dawn
2 (15) ROE Alpha
3 (16) Where Life Is
4 (17) Flames of the Final Farewell

Добавлено спустя 1 минуту 31 секунду:

С отрисовкой кунов явно не заладилось ((
loki ®
Стаж: 6 лет
Сообщений: 4601
Ratio: 78,024
Поблагодарили: 31607
100%
Откуда: Днепр
roody.gif
Через пару месяцев обязательно закатают. Если сид так и не появится.
В любом случае это буду не я.
У меня помер хард со всем аниме что был. Качать/ретаймить/апать желания нет.
Как нет и рипов дальше 17й. На ня
Kvazikvark
Стаж: 5 лет 2 мес.
Сообщений: 9
Ratio: 64,347
Раздал: 4,477 TB
100%
Откуда: Komakan, Gensokyo
ussr.gif
Помер хард... Если не секрет, то что вышло из строя или как проявляется?(чисто интересно, большинство поломок позволяют спасти инфу тем или иным способом, правда только если не разрушены сами диски)
loki ®
Стаж: 6 лет
Сообщений: 4601
Ratio: 78,024
Поблагодарили: 31607
100%
Откуда: Днепр
roody.gif
Я покривил душой, на самом деле лег системный ссд и я не нашел лучшего решения чем назначить на его роль хард с аниме, поскольку интерес к нему пропал полностью.
Есть же тврип, здесь же...
Kvazikvark
Стаж: 5 лет 2 мес.
Сообщений: 9
Ratio: 64,347
Раздал: 4,477 TB
100%
Откуда: Komakan, Gensokyo
ussr.gif
Цитата:
Есть же тврип, здесь же...

Само аниме я уже давно посмотрел, но для коллекции нужен BD-Rip 1080p, в принципе мне без разницы откуда его брать, могу с Няторрента добрать недостающие серии лежащие в этой раздаче и скорее всего так и поступлю, или можно даже скачать рип в x.265, там со всеми сериями лежит, хотя это надо напрячься и обновить кодеки на компе...
Ок, ничего не поделаешь, видимо придётся уйти с раздачи, даже если сид таки вернётся, поскольку обнов не предвидеться.
ElSwanko
Куратор Аниме
Модератор Музыки
Стаж: 10 лет 4 мес.
Сообщений: 9714
Ratio: 441,84
Поблагодарили: 34453
100%
Откуда: ур-пр​остра​нство​ преко​нтину​ума​
roody.gif
Kvazikvark писал(а): Перейти к сообщению
или можно даже скачать рип в x.265, там со всеми сериями лежит

А потом выложить его сюда :)

_________________
Правила: Аниме, Манга, OST || Музыка
Скриншоты || MediaInfo || auCDtect
loki ®
Стаж: 6 лет
Сообщений: 4601
Ratio: 78,024
Поблагодарили: 31607
100%
Откуда: Днепр
roody.gif
ElSwanko писал(а): Перейти к сообщению
А потом выложить его сюда

И слушать как скулит Разор?

Добавлено спустя 1 минуту 8 секунд:

Рип этот я вчера скачал, но там ретайм всего второго сезона, так что когда проснется вдохновение и проснется ли вообще я [Хочу Знать]
ElSwanko
Куратор Аниме
Модератор Музыки
Стаж: 10 лет 4 мес.
Сообщений: 9714
Ratio: 441,84
Поблагодарили: 34453
100%
Откуда: ур-пр​остра​нство​ преко​нтину​ума​
roody.gif
loki писал(а): Перейти к сообщению
И слушать как скулит Разор?

Он такое не смотрит. Да и услышим только мы)

_________________
Правила: Аниме, Манга, OST || Музыка
Скриншоты || MediaInfo || auCDtect
loki ®
Стаж: 6 лет
Сообщений: 4601
Ratio: 78,024
Поблагодарили: 31607
100%
Откуда: Днепр
roody.gif
ElSwanko писал(а): Перейти к сообщению
Он такое не смотрит.

Пагодь, это еще фрателли за перевод не садились.

Добавлено спустя 1 минуту 7 секунд:

а не, садились, 7 серий аткоекакали

Добавлено спустя 58 секунд:

Маша это же Женина сестра, я ничего не спутал?
ElSwanko
Куратор Аниме
Модератор Музыки
Стаж: 10 лет 4 мес.
Сообщений: 9714
Ratio: 441,84
Поблагодарили: 34453
100%
Откуда: ур-пр​остра​нство​ преко​нтину​ума​
roody.gif
loki писал(а): Перейти к сообщению
Маша это же Женина сестра, я ничего не спутал?

Я как-то не интересовался этим вопросом)

_________________
Правила: Аниме, Манга, OST || Музыка
Скриншоты || MediaInfo || auCDtect
loki ®
Стаж: 6 лет
Сообщений: 4601
Ratio: 78,024
Поблагодарили: 31607
100%
Откуда: Днепр
roody.gif
Ясно, в следующий раз когда мне захочется поболтать с Разором, обязательно спрошу.
loki ®
Стаж: 6 лет
Сообщений: 4601
Ratio: 78,024
Поблагодарили: 31607
100%
Откуда: Днепр
roody.gif
Чудо случилось.
Комплит.
Показать сообщения:   
Начать новую тему   Ответить на тему    Торрент-трекер NNM-Club -> Аниме сериалы -> HD и BDRip Часовой пояс: GMT + 3
Страница 1 из 1