Классический форум-трекер
canvas not supported
Нас вместе: 4 077 944

Krokodil Gena / Крокодил Гена [1969,OVA]


 
 
RSS
Начать новую тему   Ответить на тему    Торрент-трекер NNM-Club -> Аниме разное -> Аниме хардсаб
Автор Сообщение
anonymous ®
Стаж: 11 лет 3 мес.
Сообщений: 3146
Поблагодарили: 79421
0%
Krokodil Gena / Крокодил Гена

Тип: короткометражный, кукольный
Жанр:сказка
Продолжительность: 20:17
Производство/студия: Союзмультфильм
Сценарист: Роман Качанов, Эдуард Успенский
Режиссер: Роман Качанов



Видеокодек: MPEG 4 AVC (H264)
Битрейт видео: 566 Kbps
Размер кадра: 624x464
Качество видео: DVDRip
Аудиокодек:MP3
Битрейт аудио:128 Kbps CBR
Звук: Японский
Субтитры: Русский хардсаб

Описание:
Чебурашка, найденный в коробке с апельсинами, привезённой в один очень большой город, встречается с крокодилом Геной. Вместе они ищут друзей, в числе которых лев Чандр и пионерка Галя, и помогают другим персонажам — людям и говорящим животным. Им противодействуют старуха Шапокляк и её ручная крыса Лариска.

Крокодил Гена
Крокодил Гена ходит на задних лапах, носит костюм, шляпу и трость, курит трубку и ежедневно ходит в зоопарк, где работает крокодилом (характерный пример сдержанного юмора Э.Успенского). Табличка над его местом работы гласит: «Африканский крокодил Гена. Возраст пятьдесят лет. Кормить и гладить разрешается». В мультфильме крокодила Гену озвучивает Василий Ливанов.

В свой день рождения Гена поет песенку «Пусть бегут неуклюже…». Эта песенка с тех пор часто исполняется по поводу дней рождения.

Старуха Шапокляк

Старуха Шапокляк, названная в честь старомодного головного убора — главный антагонист Чебурашки и Гены. Cогласно книге, её основное занятие — «собирать злы», в мультфильме её девиз выражен в песенке: «Кто людям помогает — тот тратит время зря. Хорошими делами прославиться нельзя». Шапокляк при поддержке живущей в её ридикюле крысы Лариски устраивает жестокие розыгрыши над невинными жителями города. По мере знакомства с Геной и Чебурашкой Шапокляк постепенно встаёт на путь исправления, обычно возвращаясь к хулиганству в начале следующего выпуска мультфильма.
Код:
Общее
Уникальный идентификатор                 : 301105107603195805201655692578200099100 (0xE286BBFC0228D11D3A74557B5B1E191C)
Полное имя                               :[mguu]_cheburashka_-_01_[jp.ru_hard][ec2183ed].mkv
Формат                                   : Matroska
Версия формата                           : Version 1
Размер файла                             : 106 Мбайт
Продолжительность                        : 20 м.
Общий поток                              : 732 Кбит/сек
Дата кодирования                         : UTC 2008-03-31 13:09:40
Программа кодирования                    : mkvmerge v2.0.2 ('You're My Flame') built on Oct  6 2007 12:23:27
Библиотека кодирования                   : libebml v0.7.7 + libmatroska v0.8.1

Видео
Идентификатор                            : 1
Формат                                   : AVC
Формат/Информация                        : Advanced Video Codec
Профиль формата                          : High@L5.1
Параметр CABAC формата                   : Да
Параметр ReFrames формата                : 11 кадров
Идентификатор кодека                     : V_MPEG4/ISO/AVC
Продолжительность                        : 20 м.
Битрейт                                  : 600 Кбит/сек
Ширина                                   : 624 пикселя
Высота                                   : 464 пикселя
Соотношение сторон                       : 4:3
Режим частоты кадров                     : Постоянный
Частота кадров                           : 29,970 (30000/1001) кадров/сек
Цветовое пространство                    : YUV
Субдискретизация насыщенности            : 4:2:0
Битовая глубина                          : 8 бит
Тип развёртки                            : Прогрессивная
Бит/(Пиксели*Кадры)                      : 0.069
Размер потока                            : 85,5 Мбайт (81%)
Библиотека кодирования                   : x264 core 54 svn-649
Настройки программы                      : cabac=1 / ref=8 / deblock=1:0:0 / analyse=0x3:0x113 / me=umh / subme=7 / brdo=1 / mixed_ref=1 / me_range=16 / chroma_me=1 / trellis=2 / 8x8dct=1 / cqm=0 / deadzone=21,11 / chroma_qp_offset=0 / threads=2 / nr=0 / decimate=0 / mbaff=0 / bframes=4 / b_pyramid=1 / b_adapt=1 / b_bias=0 / direct=1 / wpredb=1 / bime=1 / keyint=1000 / keyint_min=1 / scenecut=40(pre) / rc=2pass / bitrate=600 / ratetol=10.0 / rceq='blurCplx^(1-qComp)' / qcomp=0.60 / qpmin=10 / qpmax=51 / qpstep=4 / cplxblur=20.0 / qblur=0.5 / ip_ratio=1.40 / pb_ratio=1.30
Default                                  : Да
Forced                                   : Нет

Аудио
Идентификатор                            : 2
Формат                                   : MPEG Audio
Версия формата                           : Version 1
Профиль формата                          : Layer 3
Режим                                    : Joint stereo
Расширение режима                        : MS Stereo
Идентификатор кодека                     : A_MPEG/L3
Идентификатор кодека/Подсказка           : MP3
Продолжительность                        : 20 м.
Вид битрейта                             : Постоянный
Битрейт                                  : 128 Кбит/сек
Каналы                                   : 2 канала
Частота                                  : 48,0 КГц
Метод сжатия                             : С потерями
Размер потока                            : 18,6 Мбайт (17%)
Библиотека кодирования                   : LAME3.97
Настройки программы                      : -m j -V 4 -q 0 -lowpass 17 -b 128
Default                                  : Да
Forced                                   : Нет
[NNM-Club.info] [mguu]_cheburashka_-_01_[jp.ru_hard][ec2183ed].mkv.torrent
 Торрент: Платиновая раздача  Зарегистрирован
 
Скачать


 Зарегистрирован:   22 Авг 2008 22:55:24
 Размер:   106 MB  (
 Рейтинг:   4,8 (Голосов: 44)
 Поблагодарили:   86
 Проверка:   Оформление проверено модератором 23 Авг 2008 09:57:12
Как cкачать  ·  Как раздать  ·  Правильно оформить  ·  Поднять ратио!  
Triptex
 
Стаж: 11 лет 10 мес.
Сообщений: 358
Ratio: 3,904
Поблагодарили: 251
100%
japan.gif
Воот! Вот то что я так давно и безуспешно искал! :супер!: :супер!:
Релизеру мега респект! :поклоняется:
И у меня сразу же вопрос: остальные серии этого прекрасного (уникального) аниме, будут? :ангел:
Исповедник
Стаж: 12 лет 9 мес.
Сообщений: 1109
Ratio: 3,973
Поблагодарили: 1642
8.9%
Откуда: Saint-Pet​ersburg​
russia.gif
anonymous писал(а):
курит трубку

Он её не курит! он ей пузыри пускает!

Добавлено спустя 54 секунды:

Смотрю и валяюсь... Анонимус, жгешь...
DonCiHot
Стаж: 11 лет 9 мес.
Сообщений: 7405
Ratio: 20,505
Поблагодарили: 2137
100%
roody.gif
Спасибо за доставку анон, это мега жесть =^____^=

_________________
FAQ :: FAQ2 :: RSS2
supermurik
Стаж: 12 лет 4 мес.
Сообщений: 265
Ratio: 4,112
Поблагодарили: 1513
100%
Откуда: Москва
russia.gif
Весьма забавно.
Это для закоренелых анимешников которые даже Русские мультики не могут смотреть без японской озвучки и субтитров... :D
zHz
Стаж: 12 лет 3 мес.
Сообщений: 733
Ratio: 20,483
Поблагодарили: 1156
100%
roody.gif
anonymous
а у тебя случаем не завалялась японская версия пингвинёнка ЛОЛО?
оригинальное название (а это всё, что я нашёл) -- ペンギンロロの冒険, а скорее 小さなペンギン ロロの冒険 (chiisana pengin roro no bouken)
lees13
Стаж: 12 лет 6 мес.
Сообщений: 233
Ratio: 55,829
Раздал: 127,3 TB
Поблагодарили: 133
100%
Откуда: Псков
roody.gif
даешь вини пуха...

_________________

Японский язык вообще весёлая штука: как иероглифы не сложи — выйдет какая-нибудь чепуха со смыслом!!!
Lin Thei
Стаж: 13 лет
Сообщений: 800
Ratio: 4,796
Поблагодарили: 1186
100%
Откуда: Narva
roody.gif
долго вкуривал прикол...
понял что не ту траву курю...

_________________
Epic Fail
[W]iTCHER
Стаж: 11 лет 8 мес.
Сообщений: 32
Ratio: 4,367
Поблагодарили: 65
100%
Откуда: Russia
roody.gif
Требую продолжения этого безобразия! xD
ElSwanko
Куратор Аниме
Модератор Музыки
Стаж: 13 лет
Сообщений: 13527
Ratio: 878,565
Поблагодарили: 55141
100%
Откуда: ур-пространство преконтинуума
roody.gif
в оавшки надо перенести ;)

_________________
Правила: Аниме, Манга, OST || Музыка
Помощь: Скриншоты || MediaInfo || auCDtect
lees13
Стаж: 12 лет 6 мес.
Сообщений: 233
Ratio: 55,829
Раздал: 127,3 TB
Поблагодарили: 133
100%
Откуда: Псков
roody.gif
очень долго и упорно, после просмотра, пытался выползти из под стола... но так и неполучилось... даешь продолжение... особенно меня убила речь чебурашки после построийки дома.....

_________________

Японский язык вообще весёлая штука: как иероглифы не сложи — выйдет какая-нибудь чепуха со смыслом!!!
brandy
I'll be back
Стаж: 12 лет 3 мес.
Сообщений: 2730
Ratio: 8,432
Раздал: 2,665 TB
Поблагодарили: 13865
100%
Откуда: aus Czernowitz
ukraine.gif
Мой дебют в разделе "Аниме" в качестве личера :)
Несколько часов гуглил, читал википедию, пробовал понять о чем же люди говорят в IRC на канале #nnm-club :кругом голова: , понять их терминологию, понять, почему бот за "ня" кикает :)
Потратил немало времени, читая этот раздел, уже после википедии. Так и наткнулся на этот релиз, и по описанию и коментариям понял, что я его ДОЛЖЕН посмотреть :)
anonymous - :респект:

P.S.: Поразило
Цитата:
Звук: Японский
Субтитры: Русский хардсаб
The_ork
Стаж: 13 лет
Сообщений: 367
Ratio: 290,298
Поблагодарили: 94
100%
Откуда: Донецк
roody.gif
Адназначна, позитив! СПАСИБО! ;)
sibirskii_a
Стаж: 7 лет 8 мес.
Сообщений: 8
Ratio: 5,857
Раздал: 1,907 TB
Поблагодарили: 2
100%
Откуда: Землянин...
russia.gif
Качаю... Много слышал о том, что Чебурашку и Гену "купили" японцы и сняли многосерийник... Надеюсь оказаться в слезах от японской озвучки...

З.Ы.: Захотелось советского лимонада....

_________________
Жизнь нужно прожить так, чтобы в аду сказали: Извините, у нас здесь приличные люди!
Показать сообщения:   
Начать новую тему   Ответить на тему    Торрент-трекер NNM-Club -> Аниме разное -> Аниме хардсаб Часовой пояс: GMT + 3
Страница 1 из 1