Классический форум-трекер
canvas not supported
Нас вместе: 4 095 046

Властелины неба. Экипаж (2007) [DVDRip]


 
 
RSS
Начать новую тему   Ответить на тему    Торрент-трекер NNM-Club -> Документалистика и Телепередачи -> Авиация
Автор Сообщение
RA25694 ®
Стаж: 13 лет 4 мес.
Сообщений: 931
Ratio: 12,083
Поблагодарили: 34812
100%
Откуда: СПб
russia.gif
Властелины неба. Экипаж (2007) [DVDRip]
Название: Властелины неба. Экипаж

Режиссер/Телекомпания: Александр Сидоров / ФГУ "141 Дом офицеров ВВС"
Год выпуска: 2007
Жанр: Документальный

Описание:
Фильм посвящен 95-и летию Военно-воздушных сил России. Рассказ ведется о военных авиаторах и их службе.

Продолжительность: 00:26:01
Перевод: Оригинальный

Видеокодек: XviD
Битрейт видео: 2035Kbps
Размер кадра: 720 x 416
Качество видео: DVDRip
Аудиокодек: MP3
Битрейт аудио: 48000Hz stereo 100Kbps
Общее
Полное имя : I:\vvs90_1.avi
Формат : AVI
Формат/Информация : Audio Video Interleave
Размер файла : 400 Мбайт
Продолжительность : 26 м.
Режим общего битрейта : Переменный
Общий поток : 2149 Кбит/сек
Программа кодирования : VirtualDubMod 1.5.4.1 (build 2178/release)
Библиотека кодирования : VirtualDubMod build 2178/release

Видео
Идентификатор : 0
Формат : MPEG-4 Visual
Профиль формата : Advanced Simple@L5
Параметр BVOP формата : 1
Параметр QPel формата : Нет
Параметр GMC формата : Без точки перехода
Параметр матрицы формата : Выборочная
Идентификатор кодека : XVID
Идентификатор кодека/Подсказка : XviD
Продолжительность : 26 м.
Битрейт : 2035 Кбит/сек
Ширина : 720 пикселей
Высота : 416 пикселей
Соотношение сторон : 1,731
Частота кадров : 25,000 кадров/сек
Цветовое пространство : YUV
Субдискретизация насыщенности : 4:2:0
Битовая глубина : 8 бит
Тип развёртки : Прогрессивная
Метод сжатия : С потерями
Бит/(Пиксели*Кадры) : 0.272
Размер потока : 379 Мбайт (95%)
Библиотека кодирования : XviD 1.2.0.dev47 (UTC 2006-11-01)

Аудио
Идентификатор : 1
Формат : MPEG Audio
Версия формата : Version 1
Профиль формата : Layer 3
Режим : Joint stereo
Идентификатор кодека : 55
Идентификатор кодека/Подсказка : MP3
Продолжительность : 26 м.
Вид битрейта : Переменный
Битрейт : 100 Кбит/сек
Номинальный битрейт : 128 Кбит/сек
Каналы : 2 канала
Частота : 48,0 КГц
Метод сжатия : С потерями
Размер потока : 18,7 Мбайт (5%)
Выравнивание : Соединение по промежуткам
Продолжительность промежутка : 24 мс. (0,60 видеокадр)
Время предзагрузки промежутка : 510 мс.
Библиотека кодирования : LAME3.97
Настройки программы : -m j -V 4 -q 2 -lowpass 17 --abr 128
Скриншоты:


Другие серии фильма:
Властелины неба. Братишки (2007) [DVDRip]
Властелины неба. Такая работа... (2007) [DVDRip]
Властелины неба. Командир (2007) [DVDRip]
Властелины неба. Летчик №1 (2007) [DVDRip]


Время раздачи: с 09:00 до 24:00
[NNM-Club.info] vvs90_1.avi.torrent
 Торрент: Золотая раздача  Зарегистрирован
 
Зарегистрируйтесь и скачайте торрент!
15,8 KB

 Зарегистрирован:   23 Авг 2008 10:14:42
 Размер:   400 MB  (
 Рейтинг:   4,9 (Голосов: 16)
 Поблагодарили:   32
 Проверка:   Оформление проверено модератором 23 Авг 2008 14:42:23
Как cкачать  ·  Как раздать  ·  Правильно оформить  ·  Поднять ратио!  
240468
Гость
У Вас в подписи к релизам даны ссылки на nnmclub.to, которого, как Вы уже лучше меня знаете, нет и в помине.
Serrggey
Стаж: 9 лет 11 мес.
Сообщений: 15
Ratio: 2,211
Раздал: 238 GB
53.85%
ukraine.gif
Пожалуйста!!!Станьте на раздачу!!!Дайте Скачать!!!
master-13
Новогодний эрудит Реставратор
Стаж: 10 лет 9 мес.
Сообщений: 746
Ratio: 550,714
Поблагодарили: 40964
100%
Откуда: из пролетариев
ussr.gif
Властелины неба. Экипаж (2007) [DVDRip]
Название: Властелины неба. Экипаж

Режиссер/Телекомпания: Александр Сидоров / ФГУ "141 Дом офицеров ВВС"
Год выпуска: 2007
Жанр: Документальный

Описание:
Фильм посвящен 95-и летию Военно-воздушных сил России. Рассказ ведется о военных авиаторах и их службе.

Продолжительность: 00:26:01
Перевод: Оригинальный

Видеокодек: XviD
Битрейт видео: 2035Kbps
Размер кадра: 720 x 416
Качество видео: DVDRip
Аудиокодек: MP3
Битрейт аудио: 48000Hz stereo 100Kbps
Общее
Полное имя : I:\vvs90_1.avi
Формат : AVI
Формат/Информация : Audio Video Interleave
Размер файла : 400 Мбайт
Продолжительность : 26 м.
Режим общего битрейта : Переменный
Общий поток : 2149 Кбит/сек
Программа кодирования : VirtualDubMod 1.5.4.1 (build 2178/release)
Библиотека кодирования : VirtualDubMod build 2178/release

Видео
Идентификатор : 0
Формат : MPEG-4 Visual
Профиль формата : Advanced Simple@L5
Параметр BVOP формата : 1
Параметр QPel формата : Нет
Параметр GMC формата : Без точки перехода
Параметр матрицы формата : Выборочная
Идентификатор кодека : XVID
Идентификатор кодека/Подсказка : XviD
Продолжительность : 26 м.
Битрейт : 2035 Кбит/сек
Ширина : 720 пикселей
Высота : 416 пикселей
Соотношение сторон : 1,731
Частота кадров : 25,000 кадров/сек
Цветовое пространство : YUV
Субдискретизация насыщенности : 4:2:0
Битовая глубина : 8 бит
Тип развёртки : Прогрессивная
Метод сжатия : С потерями
Бит/(Пиксели*Кадры) : 0.272
Размер потока : 379 Мбайт (95%)
Библиотека кодирования : XviD 1.2.0.dev47 (UTC 2006-11-01)

Аудио
Идентификатор : 1
Формат : MPEG Audio
Версия формата : Version 1
Профиль формата : Layer 3
Режим : Joint stereo
Идентификатор кодека : 55
Идентификатор кодека/Подсказка : MP3
Продолжительность : 26 м.
Вид битрейта : Переменный
Битрейт : 100 Кбит/сек
Номинальный битрейт : 128 Кбит/сек
Каналы : 2 канала
Частота : 48,0 КГц
Метод сжатия : С потерями
Размер потока : 18,7 Мбайт (5%)
Выравнивание : Соединение по промежуткам
Продолжительность промежутка : 24 мс. (0,60 видеокадр)
Время предзагрузки промежутка : 510 мс.
Библиотека кодирования : LAME3.97
Настройки программы : -m j -V 4 -q 2 -lowpass 17 --abr 128
Скриншоты:


Другие серии фильма:
Властелины неба. Братишки (2007) [DVDRip]
Властелины неба. Такая работа... (2007) [DVDRip]
Властелины неба. Командир (2007) [DVDRip]
Властелины неба. Летчик №1 (2007) [DVDRip]


Время раздачи: с 09:00 до 24:00
Код:
[align=center][font="Tahoma"][size=20][b]Властелины неба. Экипаж (2007) [DVDRip][/b][/size][/font][/align]
[poster=right]http://img135.imageshack.us/img135/5251/vlastcovernr0.jpg[/poster]

[b]Название:[/b] Властелины неба. Экипаж

[b]Режиссер/Телекомпания:[/b] Александр Сидоров / ФГУ "141 Дом офицеров ВВС"
[b]Год выпуска:[/b] 2007
[b]Жанр:[/b] Документальный

[b]Описание:[/b]
Фильм посвящен 95-и летию Военно-воздушных сил России. Рассказ ведется о военных авиаторах и их службе.

[b]Продолжительность:[/b] 00:26:01
[b]Перевод:[/b] Оригинальный

[b]Видеокодек:[/b] XviD
[b]Битрейт видео:[/b] 2035Kbps
[b]Размер кадра:[/b] 720 x 416
[b]Качество видео:[/b] DVDRip
[b]Аудиокодек:[/b] MP3
[b]Битрейт аудио:[/b] 48000Hz stereo 100Kbps

[hide=MediaInfo]Общее
Полное имя                               : I:\vvs90_1.avi
Формат                                   : AVI
Формат/Информация                        : Audio Video Interleave
Размер файла                             : 400 Мбайт
Продолжительность                        : 26 м.
Режим общего битрейта                    : Переменный
Общий поток                              : 2149 Кбит/сек
Программа кодирования                    : VirtualDubMod 1.5.4.1 (build 2178/release)
Библиотека кодирования                   : VirtualDubMod build 2178/release

Видео
Идентификатор                            : 0
Формат                                   : MPEG-4 Visual
Профиль формата                          : Advanced Simple@L5
Параметр BVOP формата                    : 1
Параметр QPel формата                    : Нет
Параметр GMC формата                     : Без точки перехода
Параметр матрицы формата                 : Выборочная
Идентификатор кодека                     : XVID
Идентификатор кодека/Подсказка           : XviD
Продолжительность                        : 26 м.
Битрейт                                  : 2035 Кбит/сек
Ширина                                   : 720 пикселей
Высота                                   : 416 пикселей
Соотношение сторон                       : 1,731
Частота кадров                           : 25,000 кадров/сек
Цветовое пространство                    : YUV
Субдискретизация насыщенности            : 4:2:0
Битовая глубина                          : 8 бит
Тип развёртки                            : Прогрессивная
Метод сжатия                             : С потерями
Бит/(Пиксели*Кадры)                      : 0.272
Размер потока                            : 379 Мбайт (95%)
Библиотека кодирования                   : XviD 1.2.0.dev47 (UTC 2006-11-01)

Аудио
Идентификатор                            : 1
Формат                                   : MPEG Audio
Версия формата                           : Version 1
Профиль формата                          : Layer 3
Режим                                    : Joint stereo
Идентификатор кодека                     : 55
Идентификатор кодека/Подсказка           : MP3
Продолжительность                        : 26 м.
Вид битрейта                             : Переменный
Битрейт                                  : 100 Кбит/сек
Номинальный битрейт                      : 128 Кбит/сек
Каналы                                   : 2 канала
Частота                                  : 48,0 КГц
Метод сжатия                             : С потерями
Размер потока                            : 18,7 Мбайт (5%)
Выравнивание                             : Соединение по промежуткам
Продолжительность промежутка             : 24  мс. (0,60 видеокадр)
Время предзагрузки промежутка            : 510  мс.
Библиотека кодирования                   : LAME3.97
Настройки программы                      : -m j -V 4 -q 2 -lowpass 17 --abr 128

[/hide]

[align=center][b]Скриншоты:[/b]
[URL=http://img370.imageshack.us/my.php?image=snapshot20080823102710qk1.jpg][img]http://img370.imageshack.us/img370/835/snapshot20080823102710qk1.th.jpg[/img][/URL] [URL=http://img368.imageshack.us/my.php?image=snapshot20080823102723xc2.jpg][img]http://img368.imageshack.us/img368/8146/snapshot20080823102723xc2.th.jpg[/img][/URL] [URL=http://img364.imageshack.us/my.php?image=snapshot20080823103244cr8.jpg][img]http://img364.imageshack.us/img364/9727/snapshot20080823103244cr8.th.jpg[/img][/URL] [URL=http://img297.imageshack.us/my.php?image=snapshot20080823103257mp1.jpg][img]http://img297.imageshack.us/img297/8523/snapshot20080823103257mp1.th.jpg[/img][/URL] [URL=http://img120.imageshack.us/my.php?image=snapshot20080823103317sa7.jpg][img]http://img120.imageshack.us/img120/954/snapshot20080823103317sa7.th.jpg[/img][/URL][/align]

[align=center][glow=blue][color=blue][b]Другие серии фильма:[/b][/color][/glow]
[url=http://nnmclub.to/forum/viewtopic.php?t=95261]Властелины неба. Братишки (2007) [DVDRip][/url]
[url=http://nnmclub.to/forum/viewtopic.php?t=95561]Властелины неба. Такая работа... (2007) [DVDRip][/url]
[url=http://nnmclub.to/forum/viewtopic.php?t=95849]Властелины неба. Командир (2007) [DVDRip][/url]
[url=http://nnmclub.to/forum/viewtopic.php?t=95902]Властелины неба. Летчик №1 (2007) [DVDRip][/url][/align]

[b]Время раздачи:[/b] с 09:00 до 24:00

_________________
230-220·0,5=5!
20-10:2=5!!
Показать сообщения:   
Начать новую тему   Ответить на тему    Торрент-трекер NNM-Club -> Документалистика и Телепередачи -> Авиация Часовой пояс: GMT + 3
Страница 1 из 1