Классический форум-трекер
canvas not supported
Нас вместе: 4 094 682

Властелины неба. Братишки (2007) [DVDRip]


 
 
RSS
Начать новую тему   Ответить на тему    Торрент-трекер NNM-Club -> Документалистика и Телепередачи -> Авиация
Автор Сообщение
RA25694 ®
Стаж: 13 лет 4 мес.
Сообщений: 931
Ratio: 12,109
Поблагодарили: 34810
100%
Откуда: СПб
russia.gif
Властелины неба. Братишки (2007) [DVDRip]
Название: Властелины неба. Братишки

Режиссер/Телекомпания: Александр Сидоров / ФГУ "141 Дом офицеров ВВС"
Год выпуска: 2007
Жанр: Документальный

Описание:
Фильм посвящен 95-и летию Военно-воздушных сил России. Рассказ ведется о военных авиаторах и их службе.

Продолжительность: 00:26:44

Видеокодек: XviD
Битрейт видео: 1977Kbps
Размер кадра: 720 x 416
Качество видео: DVDRip
Аудиокодек: MP3 stereo
Битрейт аудио: VBR | avr. 128kbps, 48kHz
Общее
Полное имя : I:\vvs90_2.avi
Формат : AVI
Формат/Информация : Audio Video Interleave
Размер файла : 400 Мбайт
Продолжительность : 26 м.
Режим общего битрейта : Переменный
Общий поток : 2091 Кбит/сек
Программа кодирования : VirtualDubMod 1.5.4.1 (build 2178/release)
Библиотека кодирования : VirtualDubMod build 2178/release

Видео
Идентификатор : 0
Формат : MPEG-4 Visual
Профиль формата : Advanced Simple@L5
Параметр BVOP формата : 1
Параметр QPel формата : Нет
Параметр GMC формата : Без точки перехода
Параметр матрицы формата : Выборочная
Идентификатор кодека : XVID
Идентификатор кодека/Подсказка : XviD
Продолжительность : 26 м.
Битрейт : 1977 Кбит/сек
Ширина : 720 пикселей
Высота : 416 пикселей
Соотношение сторон : 1,731
Частота кадров : 25,000 кадров/сек
Цветовое пространство : YUV
Субдискретизация насыщенности : 4:2:0
Битовая глубина : 8 бит
Тип развёртки : Прогрессивная
Метод сжатия : С потерями
Бит/(Пиксели*Кадры) : 0.264
Размер потока : 378 Мбайт (95%)
Библиотека кодирования : XviD 1.2.0.dev47 (UTC 2006-11-01)

Аудио
Идентификатор : 1
Формат : MPEG Audio
Версия формата : Version 1
Профиль формата : Layer 3
Режим : Joint stereo
Расширение режима : MS Stereo
Идентификатор кодека : 55
Идентификатор кодека/Подсказка : MP3
Продолжительность : 26 м.
Вид битрейта : Переменный
Битрейт : 101 Кбит/сек
Номинальный битрейт : 128 Кбит/сек
Каналы : 2 канала
Частота : 48,0 КГц
Метод сжатия : С потерями
Размер потока : 19,3 Мбайт (5%)
Выравнивание : Соединение по промежуткам
Продолжительность промежутка : 24 мс. (0,60 видеокадр)
Время предзагрузки промежутка : 183 мс.
Библиотека кодирования : LAME3.97
Настройки программы : -m j -V 4 -q 2 -lowpass 17 --abr 128
Скриншоты:
Время раздачи: с 09:00 до 24:00
[NNM-Club.info] vvs90_2.avi.torrent
 Торрент: Золотая раздача  Зарегистрирован
 
Зарегистрируйтесь и скачайте торрент!
15,8 KB

 Зарегистрирован:   24 Авг 2008 14:07:04
 Размер:   400 MB  (
 Рейтинг:   4,9 (Голосов: 11)
 Поблагодарили:   26
 Проверка:   Оформление проверено модератором 24 Авг 2008 14:17:29
Как cкачать  ·  Как раздать  ·  Правильно оформить  ·  Поднять ратио!  
jimmy-floyd
Стаж: 12 лет
Сообщений: 125
Ratio: 2,552
100%
а раздать?
master-13
Новогодний эрудит Реставратор
Стаж: 10 лет 9 мес.
Сообщений: 746
Ratio: 549,291
Поблагодарили: 40879
100%
Откуда: из пролетариев
ussr.gif
Властелины неба. Братишки (2007) [DVDRip]
Название: Властелины неба. Братишки

Режиссер/Телекомпания: Александр Сидоров / ФГУ "141 Дом офицеров ВВС"
Год выпуска: 2007
Жанр: Документальный

Описание:
Фильм посвящен 95-и летию Военно-воздушных сил России. Рассказ ведется о военных авиаторах и их службе.

Продолжительность: 00:26:44

Видеокодек: XviD
Битрейт видео: 1977Kbps
Размер кадра: 720 x 416
Качество видео: DVDRip
Аудиокодек: MP3 stereo
Битрейт аудио: VBR | avr. 128kbps, 48kHz
Общее
Полное имя : I:\vvs90_2.avi
Формат : AVI
Формат/Информация : Audio Video Interleave
Размер файла : 400 Мбайт
Продолжительность : 26 м.
Режим общего битрейта : Переменный
Общий поток : 2091 Кбит/сек
Программа кодирования : VirtualDubMod 1.5.4.1 (build 2178/release)
Библиотека кодирования : VirtualDubMod build 2178/release

Видео
Идентификатор : 0
Формат : MPEG-4 Visual
Профиль формата : Advanced Simple@L5
Параметр BVOP формата : 1
Параметр QPel формата : Нет
Параметр GMC формата : Без точки перехода
Параметр матрицы формата : Выборочная
Идентификатор кодека : XVID
Идентификатор кодека/Подсказка : XviD
Продолжительность : 26 м.
Битрейт : 1977 Кбит/сек
Ширина : 720 пикселей
Высота : 416 пикселей
Соотношение сторон : 1,731
Частота кадров : 25,000 кадров/сек
Цветовое пространство : YUV
Субдискретизация насыщенности : 4:2:0
Битовая глубина : 8 бит
Тип развёртки : Прогрессивная
Метод сжатия : С потерями
Бит/(Пиксели*Кадры) : 0.264
Размер потока : 378 Мбайт (95%)
Библиотека кодирования : XviD 1.2.0.dev47 (UTC 2006-11-01)

Аудио
Идентификатор : 1
Формат : MPEG Audio
Версия формата : Version 1
Профиль формата : Layer 3
Режим : Joint stereo
Расширение режима : MS Stereo
Идентификатор кодека : 55
Идентификатор кодека/Подсказка : MP3
Продолжительность : 26 м.
Вид битрейта : Переменный
Битрейт : 101 Кбит/сек
Номинальный битрейт : 128 Кбит/сек
Каналы : 2 канала
Частота : 48,0 КГц
Метод сжатия : С потерями
Размер потока : 19,3 Мбайт (5%)
Выравнивание : Соединение по промежуткам
Продолжительность промежутка : 24 мс. (0,60 видеокадр)
Время предзагрузки промежутка : 183 мс.
Библиотека кодирования : LAME3.97
Настройки программы : -m j -V 4 -q 2 -lowpass 17 --abr 128
Скриншоты:
Другие серии фильма:
Властелины неба. Экипаж (2007) [DVDRip]
Властелины неба. Такая работа... (2007) [DVDRip]
Властелины неба. Командир (2007) [DVDRip]
Властелины неба. Летчик №1 (2007) [DVDRip]


Время раздачи: с 09:00 до 24:00
Код:
[align=center][font="Tahoma"][size=20][b]Властелины неба. Братишки (2007) [DVDRip][/b][/size][/font][/align]
[poster=right]http://img706.imageshack.us/img706/8972/oupb.jpg[/poster]

[b]Название:[/b] Властелины неба. Братишки

[b]Режиссер/Телекомпания:[/b] Александр Сидоров / ФГУ "141 Дом офицеров ВВС"
[b]Год выпуска:[/b] 2007
[b]Жанр:[/b] Документальный

[b]Описание:[/b]
Фильм посвящен 95-и летию Военно-воздушных сил России. Рассказ ведется о военных авиаторах и их службе.

[b]Продолжительность:[/b] 00:26:44

[b]Видеокодек:[/b] XviD
[b]Битрейт видео:[/b] 1977Kbps
[b]Размер кадра:[/b] 720 x 416
[b]Качество видео:[/b] DVDRip
[b]Аудиокодек:[/b] MP3 stereo
[b]Битрейт аудио:[/b] VBR | avr. 128kbps, 48kHz

[hide=MediaInfo]Общее
Полное имя                               : I:\vvs90_2.avi
Формат                                   : AVI
Формат/Информация                        : Audio Video Interleave
Размер файла                             : 400 Мбайт
Продолжительность                        : 26 м.
Режим общего битрейта                    : Переменный
Общий поток                              : 2091 Кбит/сек
Программа кодирования                    : VirtualDubMod 1.5.4.1 (build 2178/release)
Библиотека кодирования                   : VirtualDubMod build 2178/release

Видео
Идентификатор                            : 0
Формат                                   : MPEG-4 Visual
Профиль формата                          : Advanced Simple@L5
Параметр BVOP формата                    : 1
Параметр QPel формата                    : Нет
Параметр GMC формата                     : Без точки перехода
Параметр матрицы формата                 : Выборочная
Идентификатор кодека                     : XVID
Идентификатор кодека/Подсказка           : XviD
Продолжительность                        : 26 м.
Битрейт                                  : 1977 Кбит/сек
Ширина                                   : 720 пикселей
Высота                                   : 416 пикселей
Соотношение сторон                       : 1,731
Частота кадров                           : 25,000 кадров/сек
Цветовое пространство                    : YUV
Субдискретизация насыщенности            : 4:2:0
Битовая глубина                          : 8 бит
Тип развёртки                            : Прогрессивная
Метод сжатия                             : С потерями
Бит/(Пиксели*Кадры)                      : 0.264
Размер потока                            : 378 Мбайт (95%)
Библиотека кодирования                   : XviD 1.2.0.dev47 (UTC 2006-11-01)

Аудио
Идентификатор                            : 1
Формат                                   : MPEG Audio
Версия формата                           : Version 1
Профиль формата                          : Layer 3
Режим                                    : Joint stereo
Расширение режима                        : MS Stereo
Идентификатор кодека                     : 55
Идентификатор кодека/Подсказка           : MP3
Продолжительность                        : 26 м.
Вид битрейта                             : Переменный
Битрейт                                  : 101 Кбит/сек
Номинальный битрейт                      : 128 Кбит/сек
Каналы                                   : 2 канала
Частота                                  : 48,0 КГц
Метод сжатия                             : С потерями
Размер потока                            : 19,3 Мбайт (5%)
Выравнивание                             : Соединение по промежуткам
Продолжительность промежутка             : 24  мс. (0,60 видеокадр)
Время предзагрузки промежутка            : 183  мс.
Библиотека кодирования                   : LAME3.97
Настройки программы                      : -m j -V 4 -q 2 -lowpass 17 --abr 128

[/hide]

[align=center][b]Скриншоты:[/b]
[url=http://img96.imageshack.us/img96/2576/00gi.png][img]http://img59.imageshack.us/img59/6062/823j.jpg[/img][/url]  [url=http://img407.imageshack.us/img407/5695/z1xb.png][img]http://img41.imageshack.us/img41/6091/23zl.jpg[/img][/url]  [url=http://img850.imageshack.us/img850/2894/awhq.png][img]http://img607.imageshack.us/img607/3513/4bmf.jpg[/img][/url]  [url=http://img37.imageshack.us/img37/7275/k2h.png][img]http://img196.imageshack.us/img196/4629/wvk7.jpg[/img][/url]  [url=http://img191.imageshack.us/img191/9043/26j.png][img]http://img818.imageshack.us/img818/9127/upym.jpg[/img][/url]  [url=http://img547.imageshack.us/img547/1672/0p8g.png][img]http://img854.imageshack.us/img854/7383/jyb7.jpg[/img][/url]  [url=http://img402.imageshack.us/img402/9963/wvp.png][img]http://img580.imageshack.us/img580/1421/f20w.jpg[/img][/url]  [url=http://img839.imageshack.us/img839/6334/og27.png][img]http://img802.imageshack.us/img802/9158/fqrt.jpg[/img][/url][/align]

[hide=Дополнительные скриншоты][align=center][url=http://img443.imageshack.us/img443/7514/5zr7.png][img]http://img29.imageshack.us/img29/4377/x0wz.jpg[/img][/url]  [url=http://img547.imageshack.us/img547/2597/eo8r.png][img]http://img15.imageshack.us/img15/7459/4t4b.jpg[/img][/url]  [url=http://img577.imageshack.us/img577/273/7tys.png][img]http://img10.imageshack.us/img10/8641/mz9u.jpg[/img][/url]  [url=http://img6.imageshack.us/img6/5217/g8c.png][img]http://img4.imageshack.us/img4/5926/9ncl.jpg[/img][/url]  [url=http://img69.imageshack.us/img69/8360/8ba8.png][img]http://img835.imageshack.us/img835/8991/usj0.jpg[/img][/url]  [url=http://img40.imageshack.us/img40/686/v0zd.png][img]http://img42.imageshack.us/img42/4980/38iq.jpg[/img][/url]  [url=http://img801.imageshack.us/img801/3093/xzq6.png][img]http://img196.imageshack.us/img196/8/lo6a.jpg[/img][/url]  [url=http://img208.imageshack.us/img208/1393/e8cx.png][img]http://img546.imageshack.us/img546/9817/txg8.jpg[/img][/url]  [url=http://img822.imageshack.us/img822/3446/p2tx.png][img]http://img809.imageshack.us/img809/5574/7y8o.jpg[/img][/url][/align][/hide]

[align=center][glow=blue][color=blue][b]Другие серии фильма:[/b][/color][/glow]
[url=http://nnmclub.to/forum/viewtopic.php?t=95140]Властелины неба. Экипаж (2007) [DVDRip][/url]
[url=http://nnmclub.to/forum/viewtopic.php?t=95561]Властелины неба. Такая работа... (2007) [DVDRip][/url]
[url=http://nnmclub.to/forum/viewtopic.php?t=95849]Властелины неба. Командир (2007) [DVDRip][/url]
[url=http://nnmclub.to/forum/viewtopic.php?t=95902]Властелины неба. Летчик №1 (2007) [DVDRip][/url][/align]

[b]Время раздачи:[/b] с 09:00 до 24:00

_________________
230-220·0,5=5!
20-10:2=5!!
Показать сообщения:   
Начать новую тему   Ответить на тему    Торрент-трекер NNM-Club -> Документалистика и Телепередачи -> Авиация Часовой пояс: GMT + 3
Страница 1 из 1