Классический форум-трекер
canvas not supported
Нас вместе: 4 093 993

Властелины неба. Такая работа... (2007) [DVDRip]


 
 
RSS
Начать новую тему   Ответить на тему    Торрент-трекер NNM-Club -> Документалистика и Телепередачи -> Авиация
Автор Сообщение
RA25694 ®
Стаж: 13 лет 4 мес.
Сообщений: 931
Ratio: 12,107
Поблагодарили: 34805
100%
Откуда: СПб
russia.gif
Властелины неба. Такая работа... (2007) [DVDRip]
Название: Властелины неба. Такая работа...

Режиссер/Телекомпания: Александр Сидоров / ФГУ "141 Дом офицеров ВВС"
Год выпуска: 2007
Жанр: Документальный

Описание:
Фильм посвящен 95-и летию Военно-воздушных сил России. Рассказ ведется о военных авиаторах и их службе.

Продолжительность: 00:26:38
Перевод: Оригинальный

Видеокодек: XviD
Битрейт видео: 1985 kbps avg
Размер кадра: 720x416 (1.73:1)
Качество видео: DVDRip
Аудиокодек: MP3
Битрейт аудио: 100.50 kbps avg
Общее
Полное имя : I:\vvs90_3.avi
Формат : AVI
Формат/Информация : Audio Video Interleave
Размер файла : 400 Мбайт
Продолжительность : 26 м.
Режим общего битрейта : Переменный
Общий поток : 2099 Кбит/сек
Программа кодирования : VirtualDubMod 1.5.4.1 (build 2178/release)
Библиотека кодирования : VirtualDubMod build 2178/release

Видео
Идентификатор : 0
Формат : MPEG-4 Visual
Профиль формата : Advanced Simple@L5
Параметр BVOP формата : 1
Параметр QPel формата : Нет
Параметр GMC формата : Без точки перехода
Параметр матрицы формата : Выборочная
Идентификатор кодека : XVID
Идентификатор кодека/Подсказка : XviD
Продолжительность : 26 м.
Битрейт : 1986 Кбит/сек
Ширина : 720 пикселей
Высота : 416 пикселей
Соотношение сторон : 1,731
Частота кадров : 25,000 кадров/сек
Цветовое пространство : YUV
Субдискретизация насыщенности : 4:2:0
Битовая глубина : 8 бит
Тип развёртки : Прогрессивная
Метод сжатия : С потерями
Бит/(Пиксели*Кадры) : 0.265
Размер потока : 378 Мбайт (95%)
Библиотека кодирования : XviD 1.2.0.dev47 (UTC 2006-11-01)

Аудио
Идентификатор : 1
Формат : MPEG Audio
Версия формата : Version 1
Профиль формата : Layer 3
Режим : Joint stereo
Расширение режима : MS Stereo
Идентификатор кодека : 55
Идентификатор кодека/Подсказка : MP3
Продолжительность : 26 м.
Вид битрейта : Переменный
Битрейт : 100 Кбит/сек
Номинальный битрейт : 128 Кбит/сек
Каналы : 2 канала
Частота : 48,0 КГц
Метод сжатия : С потерями
Размер потока : 19,1 Мбайт (5%)
Выравнивание : Соединение по промежуткам
Продолжительность промежутка : 24 мс. (0,60 видеокадр)
Время предзагрузки промежутка : 183 мс.
Библиотека кодирования : LAME3.97
Настройки программы : -m j -V 4 -q 2 -lowpass 17 --abr 128
Скриншоты:
Другие серии фильма:
Властелины неба. Экипаж (2007) [DVDRip]
Властелины неба. Братишки (2007) [DVDRip]
Властелины неба. Командир (2007) [DVDRip]
Властелины неба. Летчик №1 (2007) [DVDRip]


Время раздачи: с 09:00 до 24:00
[NNM-Club.info] vvs90_3.avi.torrent
 Торрент: Золотая раздача  Зарегистрирован
 
Зарегистрируйтесь и скачайте торрент!
15,8 KB
Free Leech
 Зарегистрирован:   27 Авг 2008 13:08:40
 Размер:   400 MB  (
 Рейтинг:   4,9 (Голосов: 14)
 Поблагодарили:   29
 Проверка:   Оформление проверено модератором 27 Авг 2008 20:10:37
Как cкачать  ·  Как раздать  ·  Правильно оформить  ·  Поднять ратио!  
Triumf
Стаж: 12 лет 4 мес.
Сообщений: 46
Ratio: 27,77
100%
russia.gif
Спасибо.
master-13
Новогодний эрудит Реставратор
Стаж: 10 лет 9 мес.
Сообщений: 736
Ratio: 543,653
Поблагодарили: 40323
100%
Откуда: из пролетариев
ussr.gif
Властелины неба. Такая работа... (2007) [DVDRip]
Название: Властелины неба. Такая работа...

Режиссер/Телекомпания: Александр Сидоров / ФГУ "141 Дом офицеров ВВС"
Год выпуска: 2007
Жанр: Документальный

Описание:
Фильм посвящен 95-и летию Военно-воздушных сил России. Рассказ ведется о военных авиаторах и их службе.

Продолжительность: 00:26:38
Перевод: Оригинальный

Видеокодек: XviD
Битрейт видео: 1985 kbps avg
Размер кадра: 720x416 (1.73:1)
Качество видео: DVDRip
Аудиокодек: MP3
Битрейт аудио: 100.50 kbps avg
Общее
Полное имя : I:\vvs90_3.avi
Формат : AVI
Формат/Информация : Audio Video Interleave
Размер файла : 400 Мбайт
Продолжительность : 26 м.
Режим общего битрейта : Переменный
Общий поток : 2099 Кбит/сек
Программа кодирования : VirtualDubMod 1.5.4.1 (build 2178/release)
Библиотека кодирования : VirtualDubMod build 2178/release

Видео
Идентификатор : 0
Формат : MPEG-4 Visual
Профиль формата : Advanced Simple@L5
Параметр BVOP формата : 1
Параметр QPel формата : Нет
Параметр GMC формата : Без точки перехода
Параметр матрицы формата : Выборочная
Идентификатор кодека : XVID
Идентификатор кодека/Подсказка : XviD
Продолжительность : 26 м.
Битрейт : 1986 Кбит/сек
Ширина : 720 пикселей
Высота : 416 пикселей
Соотношение сторон : 1,731
Частота кадров : 25,000 кадров/сек
Цветовое пространство : YUV
Субдискретизация насыщенности : 4:2:0
Битовая глубина : 8 бит
Тип развёртки : Прогрессивная
Метод сжатия : С потерями
Бит/(Пиксели*Кадры) : 0.265
Размер потока : 378 Мбайт (95%)
Библиотека кодирования : XviD 1.2.0.dev47 (UTC 2006-11-01)

Аудио
Идентификатор : 1
Формат : MPEG Audio
Версия формата : Version 1
Профиль формата : Layer 3
Режим : Joint stereo
Расширение режима : MS Stereo
Идентификатор кодека : 55
Идентификатор кодека/Подсказка : MP3
Продолжительность : 26 м.
Вид битрейта : Переменный
Битрейт : 100 Кбит/сек
Номинальный битрейт : 128 Кбит/сек
Каналы : 2 канала
Частота : 48,0 КГц
Метод сжатия : С потерями
Размер потока : 19,1 Мбайт (5%)
Выравнивание : Соединение по промежуткам
Продолжительность промежутка : 24 мс. (0,60 видеокадр)
Время предзагрузки промежутка : 183 мс.
Библиотека кодирования : LAME3.97
Настройки программы : -m j -V 4 -q 2 -lowpass 17 --abr 128
Скриншоты:
Другие серии фильма:
Властелины неба. Экипаж (2007) [DVDRip]
Властелины неба. Братишки (2007) [DVDRip]
Властелины неба. Командир (2007) [DVDRip]
Властелины неба. Летчик №1 (2007) [DVDRip]


Время раздачи: с 09:00 до 24:00
Код:
[align=center][font="Tahoma"][size=20][b]Властелины неба. Такая работа... (2007) [DVDRip][/b][/size][/font][/align]
[poster=right]http://img819.imageshack.us/img819/6812/is93.jpg[/poster]

[b]Название:[/b] Властелины неба. Такая работа...

[b]Режиссер/Телекомпания:[/b] Александр Сидоров / ФГУ "141 Дом офицеров ВВС"
[b]Год выпуска:[/b] 2007
[b]Жанр:[/b] Документальный

[b]Описание:[/b]
Фильм посвящен 95-и летию Военно-воздушных сил России. Рассказ ведется о военных авиаторах и их службе.

[b]Продолжительность:[/b] 00:26:38
[b]Перевод:[/b] Оригинальный

[b]Видеокодек:[/b] XviD
[b]Битрейт видео:[/b] 1985 kbps avg
[b]Размер кадра:[/b] 720x416 (1.73:1)
[b]Качество видео:[/b] DVDRip
[b]Аудиокодек:[/b] MP3
[b]Битрейт аудио:[/b] 100.50 kbps avg

[hide=MediaInfo]Общее
Полное имя                               : I:\vvs90_3.avi
Формат                                   : AVI
Формат/Информация                        : Audio Video Interleave
Размер файла                             : 400 Мбайт
Продолжительность                        : 26 м.
Режим общего битрейта                    : Переменный
Общий поток                              : 2099 Кбит/сек
Программа кодирования                    : VirtualDubMod 1.5.4.1 (build 2178/release)
Библиотека кодирования                   : VirtualDubMod build 2178/release

Видео
Идентификатор                            : 0
Формат                                   : MPEG-4 Visual
Профиль формата                          : Advanced Simple@L5
Параметр BVOP формата                    : 1
Параметр QPel формата                    : Нет
Параметр GMC формата                     : Без точки перехода
Параметр матрицы формата                 : Выборочная
Идентификатор кодека                     : XVID
Идентификатор кодека/Подсказка           : XviD
Продолжительность                        : 26 м.
Битрейт                                  : 1986 Кбит/сек
Ширина                                   : 720 пикселей
Высота                                   : 416 пикселей
Соотношение сторон                       : 1,731
Частота кадров                           : 25,000 кадров/сек
Цветовое пространство                    : YUV
Субдискретизация насыщенности            : 4:2:0
Битовая глубина                          : 8 бит
Тип развёртки                            : Прогрессивная
Метод сжатия                             : С потерями
Бит/(Пиксели*Кадры)                      : 0.265
Размер потока                            : 378 Мбайт (95%)
Библиотека кодирования                   : XviD 1.2.0.dev47 (UTC 2006-11-01)

Аудио
Идентификатор                            : 1
Формат                                   : MPEG Audio
Версия формата                           : Version 1
Профиль формата                          : Layer 3
Режим                                    : Joint stereo
Расширение режима                        : MS Stereo
Идентификатор кодека                     : 55
Идентификатор кодека/Подсказка           : MP3
Продолжительность                        : 26 м.
Вид битрейта                             : Переменный
Битрейт                                  : 100 Кбит/сек
Номинальный битрейт                      : 128 Кбит/сек
Каналы                                   : 2 канала
Частота                                  : 48,0 КГц
Метод сжатия                             : С потерями
Размер потока                            : 19,1 Мбайт (5%)
Выравнивание                             : Соединение по промежуткам
Продолжительность промежутка             : 24  мс. (0,60 видеокадр)
Время предзагрузки промежутка            : 183  мс.
Библиотека кодирования                   : LAME3.97
Настройки программы                      : -m j -V 4 -q 2 -lowpass 17 --abr 128

[/hide]

[align=center][b]Скриншоты:[/b]
[url=http://img89.imageshack.us/img89/504/713.png][img]http://img834.imageshack.us/img834/1836/lova.jpg[/img][/url]  [url=http://img90.imageshack.us/img90/9727/1wsa.png][img]http://img221.imageshack.us/img221/8435/vtfg.jpg[/img][/url]  [url=http://img37.imageshack.us/img37/8994/4wnj.png][img]http://img829.imageshack.us/img829/2167/06z1.jpg[/img][/url]  [url=http://img21.imageshack.us/img21/1549/4ly.png][img]http://img17.imageshack.us/img17/9623/9jkh.jpg[/img][/url]  [url=http://img62.imageshack.us/img62/6342/e2y4.png][img]http://img194.imageshack.us/img194/7715/9ghx.jpg[/img][/url]  [url=http://img546.imageshack.us/img546/4596/pfp.png][img]http://img28.imageshack.us/img28/2804/ebql.jpg[/img][/url]  [url=http://img17.imageshack.us/img17/6670/aiis.png][img]http://img6.imageshack.us/img6/3774/57dh.jpg[/img][/url]  [url=http://img404.imageshack.us/img404/846/xf3k.png][img]http://img199.imageshack.us/img199/1016/yvt.jpg[/img][/url][/align]

[hide=Дополнительные скриншоты][align=center][url=http://img341.imageshack.us/img341/6750/vbd.png][img]http://img94.imageshack.us/img94/5266/8bhb.jpg[/img][/url]  [url=http://img10.imageshack.us/img10/365/h0l.png][img]http://img39.imageshack.us/img39/2662/8aqs.jpg[/img][/url]  [url=http://img23.imageshack.us/img23/8669/i3w.png][img]http://img827.imageshack.us/img827/1484/d4ep.jpg[/img][/url]  [url=http://img844.imageshack.us/img844/1217/bape.png][img]http://img547.imageshack.us/img547/809/uzt7.jpg[/img][/url]  [url=http://img507.imageshack.us/img507/9461/agv.png][img]http://img12.imageshack.us/img12/8488/5zbk.jpg[/img][/url]  [url=http://img6.imageshack.us/img6/2675/sxl.png][img]http://img198.imageshack.us/img198/2692/pmp4.jpg[/img][/url]  [url=http://img708.imageshack.us/img708/9850/vyo.png][img]http://img822.imageshack.us/img822/6073/o9cy.jpg[/img][/url]  [url=http://img443.imageshack.us/img443/9779/aul.png][img]http://img41.imageshack.us/img41/751/zr35.jpg[/img][/url]  [url=http://img43.imageshack.us/img43/4069/4uj.png][img]http://img703.imageshack.us/img703/2046/w7a0.jpg[/img][/url]  [url=http://img842.imageshack.us/img842/3466/k36s.png][img]http://img809.imageshack.us/img809/3623/s5ma.jpg[/img][/url]  [url=http://img405.imageshack.us/img405/9985/f62.png][img]http://img14.imageshack.us/img14/5249/ppf2.jpg[/img][/url][/align][/hide]

[align=center][glow=blue][color=blue][b]Другие серии фильма:[/b][/color][/glow]
[url=http://nnmclub.to/forum/viewtopic.php?t=95140]Властелины неба. Экипаж (2007) [DVDRip][/url]
[url=http://nnmclub.to/forum/viewtopic.php?t=95261]Властелины неба. Братишки (2007) [DVDRip][/url]
[url=http://nnmclub.to/forum/viewtopic.php?t=95849]Властелины неба. Командир (2007) [DVDRip][/url]
[url=http://nnmclub.to/forum/viewtopic.php?t=95902]Властелины неба. Летчик №1 (2007) [DVDRip][/url][/align]

[b]Время раздачи:[/b] с 09:00 до 24:00

_________________
230-220·0,5=5!
20-10:2=5!!
Показать сообщения:   
Начать новую тему   Ответить на тему    Торрент-трекер NNM-Club -> Документалистика и Телепередачи -> Авиация Часовой пояс: GMT + 3
Страница 1 из 1