Классический форум-трекер
canvas not supported
Нас вместе: 4 095 154

Властелины неба. Командир (2007) [DVDRip]


 
 
RSS
Начать новую тему   Ответить на тему    Торрент-трекер NNM-Club -> Документалистика и Телепередачи -> Авиация
Автор Сообщение
RA25694 ®
Стаж: 13 лет 4 мес.
Сообщений: 931
Ratio: 12,083
Поблагодарили: 34812
100%
Откуда: СПб
russia.gif
Властелины неба. Командир (2007) [DVDRip]
Название: Властелины неба. Командир

Режиссер/Телекомпания: Александр Сидоров / ФГУ "141 Дом офицеров ВВС"
Год выпуска: 2007
Жанр: Документальный

Описание:
Фильм посвящен 95-и летию Военно-воздушных сил России. Рассказ ведется о военных авиаторах и их службе.

Продолжительность: 00:26:22

Видеокодек: XviD
Битрейт видео: 2006Kbps
Размер кадра: 720 x 416
Качество видео: DVDRip
Аудиокодек: MP3
Битрейт аудио: 48000Hz stereo 100Kbps
Общее
Полное имя : I:\vvs90_4.avi
Формат : AVI
Формат/Информация : Audio Video Interleave
Размер файла : 400 Мбайт
Продолжительность : 26 м.
Режим общего битрейта : Переменный
Общий поток : 2120 Кбит/сек
Программа кодирования : VirtualDubMod 1.5.4.1 (build 2178/release)
Библиотека кодирования : VirtualDubMod build 2178/release

Видео
Идентификатор : 0
Формат : MPEG-4 Visual
Профиль формата : Advanced Simple@L5
Параметр BVOP формата : 1
Параметр QPel формата : Нет
Параметр GMC формата : Без точки перехода
Параметр матрицы формата : Выборочная
Идентификатор кодека : XVID
Идентификатор кодека/Подсказка : XviD
Продолжительность : 26 м.
Битрейт : 2006 Кбит/сек
Ширина : 720 пикселей
Высота : 416 пикселей
Соотношение сторон : 1,731
Частота кадров : 25,000 кадров/сек
Цветовое пространство : YUV
Субдискретизация насыщенности : 4:2:0
Битовая глубина : 8 бит
Тип развёртки : Прогрессивная
Метод сжатия : С потерями
Бит/(Пиксели*Кадры) : 0.268
Размер потока : 379 Мбайт (95%)
Библиотека кодирования : XviD 1.2.0.dev47 (UTC 2006-11-01)

Аудио
Идентификатор : 1
Формат : MPEG Audio
Версия формата : Version 1
Профиль формата : Layer 3
Режим : Joint stereo
Расширение режима : MS Stereo
Идентификатор кодека : 55
Идентификатор кодека/Подсказка : MP3
Продолжительность : 26 м.
Вид битрейта : Переменный
Битрейт : 101 Кбит/сек
Номинальный битрейт : 128 Кбит/сек
Каналы : 2 канала
Частота : 48,0 КГц
Метод сжатия : С потерями
Размер потока : 19,0 Мбайт (5%)
Выравнивание : Соединение по промежуткам
Продолжительность промежутка : 24 мс. (0,60 видеокадр)
Время предзагрузки промежутка : 183 мс.
Библиотека кодирования : LAME3.97
Настройки программы : -m j -V 4 -q 2 -lowpass 17 --abr 128
Скриншоты:
Другие серии фильма:
Властелины неба. Экипаж (2007) [DVDRip]
Властелины неба. Братишки (2007) [DVDRip]
Властелины неба. Такая работа... (2007) [DVDRip]
Властелины неба. Летчик №1 (2007) [DVDRip]


Время раздачи: с 09:00 до 24:00
[NNM-Club.info] vvs90_4.avi.torrent
 Торрент: Золотая раздача  Зарегистрирован
 
Зарегистрируйтесь и скачайте торрент!
15,8 KB

 Зарегистрирован:   30 Авг 2008 09:24:03
 Размер:   400 MB  (
 Рейтинг:   4,8 (Голосов: 11)
 Поблагодарили:   28
 Проверка:   Оформление проверено модератором 30 Авг 2008 09:24:58
Как cкачать  ·  Как раздать  ·  Правильно оформить  ·  Поднять ратио!  
Antoha_S
 
Стаж: 12 лет 10 мес.
Сообщений: 275
Ratio: 15,967
Раздал: 8,628 TB
Поблагодарили: 1413
100%
Откуда: Москва
russia.gif
Что то не показывают как они спиваются не вылетая по пол года
oldman007
Стаж: 12 лет 3 мес.
Сообщений: 17
Ratio: 3,346
100%
Antoha_S писал(а):
Что то не показывают как они спиваются не вылетая по пол года

Ты там был, видел то, о чём говоришь???
master-13
Новогодний эрудит Реставратор
Стаж: 10 лет 9 мес.
Сообщений: 746
Ratio: 550,429
Поблагодарили: 40953
100%
Откуда: из пролетариев
ussr.gif
Властелины неба. Командир (2007) [DVDRip]
Название: Властелины неба. Командир

Режиссер/Телекомпания: Александр Сидоров / ФГУ "141 Дом офицеров ВВС"
Год выпуска: 2007
Жанр: Документальный

Описание:
Фильм посвящен 95-и летию Военно-воздушных сил России. Рассказ ведется о военных авиаторах и их службе.

Продолжительность: 00:26:22

Видеокодек: XviD
Битрейт видео: 2006Kbps
Размер кадра: 720 x 416
Качество видео: DVDRip
Аудиокодек: MP3
Битрейт аудио: 48000Hz stereo 100Kbps
Общее
Полное имя : I:\vvs90_4.avi
Формат : AVI
Формат/Информация : Audio Video Interleave
Размер файла : 400 Мбайт
Продолжительность : 26 м.
Режим общего битрейта : Переменный
Общий поток : 2120 Кбит/сек
Программа кодирования : VirtualDubMod 1.5.4.1 (build 2178/release)
Библиотека кодирования : VirtualDubMod build 2178/release

Видео
Идентификатор : 0
Формат : MPEG-4 Visual
Профиль формата : Advanced Simple@L5
Параметр BVOP формата : 1
Параметр QPel формата : Нет
Параметр GMC формата : Без точки перехода
Параметр матрицы формата : Выборочная
Идентификатор кодека : XVID
Идентификатор кодека/Подсказка : XviD
Продолжительность : 26 м.
Битрейт : 2006 Кбит/сек
Ширина : 720 пикселей
Высота : 416 пикселей
Соотношение сторон : 1,731
Частота кадров : 25,000 кадров/сек
Цветовое пространство : YUV
Субдискретизация насыщенности : 4:2:0
Битовая глубина : 8 бит
Тип развёртки : Прогрессивная
Метод сжатия : С потерями
Бит/(Пиксели*Кадры) : 0.268
Размер потока : 379 Мбайт (95%)
Библиотека кодирования : XviD 1.2.0.dev47 (UTC 2006-11-01)

Аудио
Идентификатор : 1
Формат : MPEG Audio
Версия формата : Version 1
Профиль формата : Layer 3
Режим : Joint stereo
Расширение режима : MS Stereo
Идентификатор кодека : 55
Идентификатор кодека/Подсказка : MP3
Продолжительность : 26 м.
Вид битрейта : Переменный
Битрейт : 101 Кбит/сек
Номинальный битрейт : 128 Кбит/сек
Каналы : 2 канала
Частота : 48,0 КГц
Метод сжатия : С потерями
Размер потока : 19,0 Мбайт (5%)
Выравнивание : Соединение по промежуткам
Продолжительность промежутка : 24 мс. (0,60 видеокадр)
Время предзагрузки промежутка : 183 мс.
Библиотека кодирования : LAME3.97
Настройки программы : -m j -V 4 -q 2 -lowpass 17 --abr 128
Скриншоты:
Другие серии фильма:
Властелины неба. Экипаж (2007) [DVDRip]
Властелины неба. Братишки (2007) [DVDRip]
Властелины неба. Такая работа... (2007) [DVDRip]
Властелины неба. Летчик №1 (2007) [DVDRip]


Время раздачи: с 09:00 до 24:00
Код:
[align=center][font="Tahoma"][size=20][b]Властелины неба. Командир (2007) [DVDRip][/b][/size][/font][/align]
[poster=right]http://img14.imageshack.us/img14/9532/qflw.jpg[/poster]

[b]Название:[/b] Властелины неба. Командир

[b]Режиссер/Телекомпания:[/b] Александр Сидоров / ФГУ "141 Дом офицеров ВВС"
[b]Год выпуска:[/b] 2007
[b]Жанр:[/b] Документальный

[b]Описание:[/b]
Фильм посвящен 95-и летию Военно-воздушных сил России. Рассказ ведется о военных авиаторах и их службе.

[b]Продолжительность:[/b] 00:26:22

[b]Видеокодек:[/b] XviD
[b]Битрейт видео:[/b] 2006Kbps
[b]Размер кадра:[/b] 720 x 416
[b]Качество видео:[/b] DVDRip
[b]Аудиокодек:[/b] MP3
[b]Битрейт аудио:[/b] 48000Hz stereo 100Kbps

[hide=MediaInfo]Общее
Полное имя                               : I:\vvs90_4.avi
Формат                                   : AVI
Формат/Информация                        : Audio Video Interleave
Размер файла                             : 400 Мбайт
Продолжительность                        : 26 м.
Режим общего битрейта                    : Переменный
Общий поток                              : 2120 Кбит/сек
Программа кодирования                    : VirtualDubMod 1.5.4.1 (build 2178/release)
Библиотека кодирования                   : VirtualDubMod build 2178/release

Видео
Идентификатор                            : 0
Формат                                   : MPEG-4 Visual
Профиль формата                          : Advanced Simple@L5
Параметр BVOP формата                    : 1
Параметр QPel формата                    : Нет
Параметр GMC формата                     : Без точки перехода
Параметр матрицы формата                 : Выборочная
Идентификатор кодека                     : XVID
Идентификатор кодека/Подсказка           : XviD
Продолжительность                        : 26 м.
Битрейт                                  : 2006 Кбит/сек
Ширина                                   : 720 пикселей
Высота                                   : 416 пикселей
Соотношение сторон                       : 1,731
Частота кадров                           : 25,000 кадров/сек
Цветовое пространство                    : YUV
Субдискретизация насыщенности            : 4:2:0
Битовая глубина                          : 8 бит
Тип развёртки                            : Прогрессивная
Метод сжатия                             : С потерями
Бит/(Пиксели*Кадры)                      : 0.268
Размер потока                            : 379 Мбайт (95%)
Библиотека кодирования                   : XviD 1.2.0.dev47 (UTC 2006-11-01)

Аудио
Идентификатор                            : 1
Формат                                   : MPEG Audio
Версия формата                           : Version 1
Профиль формата                          : Layer 3
Режим                                    : Joint stereo
Расширение режима                        : MS Stereo
Идентификатор кодека                     : 55
Идентификатор кодека/Подсказка           : MP3
Продолжительность                        : 26 м.
Вид битрейта                             : Переменный
Битрейт                                  : 101 Кбит/сек
Номинальный битрейт                      : 128 Кбит/сек
Каналы                                   : 2 канала
Частота                                  : 48,0 КГц
Метод сжатия                             : С потерями
Размер потока                            : 19,0 Мбайт (5%)
Выравнивание                             : Соединение по промежуткам
Продолжительность промежутка             : 24  мс. (0,60 видеокадр)
Время предзагрузки промежутка            : 183  мс.
Библиотека кодирования                   : LAME3.97
Настройки программы                      : -m j -V 4 -q 2 -lowpass 17 --abr 128

[/hide]

[align=center][b]Скриншоты:[/b]
[url=http://img191.imageshack.us/img191/3570/fmr.png][img]http://img407.imageshack.us/img407/4426/wfnk.jpg[/img][/url]  [url=http://img163.imageshack.us/img163/786/7dkg.png][img]http://img7.imageshack.us/img7/7992/t1n6.jpg[/img][/url]  [url=http://img27.imageshack.us/img27/5131/gfa9.png][img]http://img811.imageshack.us/img811/6835/w5d3.jpg[/img][/url]  [url=http://img706.imageshack.us/img706/8300/xotr.png][img]http://img542.imageshack.us/img542/1899/m1ne.jpg[/img][/url]  [url=http://img707.imageshack.us/img707/9052/05bi.png][img]http://img266.imageshack.us/img266/4443/bvcn.jpg[/img][/url]  [url=http://img16.imageshack.us/img16/5826/r3lu.png][img]http://img706.imageshack.us/img706/8723/f7uc.jpg[/img][/url]  [url=http://img812.imageshack.us/img812/1930/paun.png][img]http://img94.imageshack.us/img94/5555/bvjh.jpg[/img][/url]  [url=http://img62.imageshack.us/img62/2817/3q7.png][img]http://img824.imageshack.us/img824/624/f43u.jpg[/img][/url][/align]

[hide=Дополнительные скриншоты][align=center][url=http://img824.imageshack.us/img824/435/ogs1.png][img]http://img209.imageshack.us/img209/3939/dxef.jpg[/img][/url]  [url=http://img856.imageshack.us/img856/7999/vmey.png][img]http://img19.imageshack.us/img19/89/v1h2.jpg[/img][/url]  [url=http://img6.imageshack.us/img6/995/zyse.png][img]http://img59.imageshack.us/img59/7970/ge4p.jpg[/img][/url]  [url=http://img541.imageshack.us/img541/9501/fbu.png][img]http://img401.imageshack.us/img401/4156/ew9w.jpg[/img][/url]  [url=http://img7.imageshack.us/img7/1609/a186.png][img]http://img521.imageshack.us/img521/8430/r1u6.jpg[/img][/url]  [url=http://img13.imageshack.us/img13/4796/1pn4.png][img]http://img96.imageshack.us/img96/7725/ifjs.jpg[/img][/url]  [url=http://img35.imageshack.us/img35/5625/kelb.png][img]http://img703.imageshack.us/img703/115/uunp.jpg[/img][/url]  [url=http://img838.imageshack.us/img838/4675/in79.png][img]http://img801.imageshack.us/img801/593/paqf.jpg[/img][/url]  [url=http://img442.imageshack.us/img442/8978/0g3p.png][img]http://img849.imageshack.us/img849/2750/8sdk.jpg[/img][/url][/align][/hide]

[align=center][glow=blue][color=blue][b]Другие серии фильма:[/b][/color][/glow]
[url=http://nnmclub.to/forum/viewtopic.php?t=95140]Властелины неба. Экипаж (2007) [DVDRip][/url]
[url=http://nnmclub.to/forum/viewtopic.php?t=95261]Властелины неба. Братишки (2007) [DVDRip][/url]
[url=http://nnmclub.to/forum/viewtopic.php?t=95561]Властелины неба. Такая работа... (2007) [DVDRip][/url]
[url=http://nnmclub.to/forum/viewtopic.php?t=95902]Властелины неба. Летчик №1 (2007) [DVDRip][/url][/align]

[b]Время раздачи:[/b] с 09:00 до 24:00

_________________
230-220·0,5=5!
20-10:2=5!!
Показать сообщения:   
Начать новую тему   Ответить на тему    Торрент-трекер NNM-Club -> Документалистика и Телепередачи -> Авиация Часовой пояс: GMT + 3
Страница 1 из 1