Классический форум-трекер
canvas not supported
Нас вместе: 4 094 690

Властелины неба. Летчик №1 (2007) [DVDRip]


 
 
RSS
Начать новую тему   Ответить на тему    Торрент-трекер NNM-Club -> Документалистика и Телепередачи -> Авиация
Автор Сообщение
RA25694 ®
Стаж: 13 лет 4 мес.
Сообщений: 931
Ratio: 12,109
Поблагодарили: 34810
100%
Откуда: СПб
russia.gif
Властелины неба. Лётчик №1 (2007) [DVDRip]
Название: Властелины неба. Лётчик №1

Режиссер/Телекомпания: Александр Сидоров / ФГУ "141 Дом офицеров ВВС"
Год выпуска: 2007
Жанр: Документальный

Описание:
Фильм посвящен 95-и летию Военно-воздушных сил России. Рассказ ведется о военных авиаторах и их службе.

Продолжительность: 00:26:26
Перевод: Оригинальный

Видеокодек: XviD
Битрейт видео: 2001 kbps avg
Размер кадра: 720x416 (1.73:1)
Качество видео: DVDRip
Аудиокодек: MP3
Битрейт аудио: 100.66 kbps avg
Общее
Полное имя : I:\vvs90_5.avi
Формат : AVI
Формат/Информация : Audio Video Interleave
Размер файла : 400 Мбайт
Продолжительность : 26 м.
Режим общего битрейта : Переменный
Общий поток : 2115 Кбит/сек
Программа кодирования : VirtualDubMod 1.5.4.1 (build 2178/release)
Библиотека кодирования : VirtualDubMod build 2178/release

Видео
Идентификатор : 0
Формат : MPEG-4 Visual
Профиль формата : Advanced Simple@L5
Параметр BVOP формата : 1
Параметр QPel формата : Нет
Параметр GMC формата : Без точки перехода
Параметр матрицы формата : Выборочная
Идентификатор кодека : XVID
Идентификатор кодека/Подсказка : XviD
Продолжительность : 26 м.
Битрейт : 2002 Кбит/сек
Ширина : 720 пикселей
Высота : 416 пикселей
Соотношение сторон : 1,731
Частота кадров : 25,000 кадров/сек
Цветовое пространство : YUV
Субдискретизация насыщенности : 4:2:0
Битовая глубина : 8 бит
Тип развёртки : Прогрессивная
Метод сжатия : С потерями
Бит/(Пиксели*Кадры) : 0.267
Размер потока : 379 Мбайт (95%)
Библиотека кодирования : XviD 1.2.0.dev47 (UTC 2006-11-01)

Аудио
Идентификатор : 1
Формат : MPEG Audio
Версия формата : Version 1
Профиль формата : Layer 3
Режим : Joint stereo
Расширение режима : MS Stereo
Идентификатор кодека : 55
Идентификатор кодека/Подсказка : MP3
Продолжительность : 26 м.
Вид битрейта : Переменный
Битрейт : 101 Кбит/сек
Номинальный битрейт : 128 Кбит/сек
Каналы : 2 канала
Частота : 48,0 КГц
Метод сжатия : С потерями
Размер потока : 19,0 Мбайт (5%)
Выравнивание : Соединение по промежуткам
Продолжительность промежутка : 24 мс. (0,60 видеокадр)
Время предзагрузки промежутка : 503 мс.
Библиотека кодирования : LAME3.97
Настройки программы : -m j -V 4 -q 2 -lowpass 17 --abr 128
Скриншоты:
Другие серии фильма:
Властелины неба. Экипаж (2007) [DVDRip]
Властелины неба. Братишки (2007) [DVDRip]
Властелины неба. Такая работа... (2007) [DVDRip]
Властелины неба. Командир (2007) [DVDRip]


Время раздачи: с 09:00 до 24:00
[NNM-Club.info] vvs90_5.avi.torrent
 Торрент: Золотая раздача  Зарегистрирован
 
Зарегистрируйтесь и скачайте торрент!
15,8 KB

 Зарегистрирован:   30 Авг 2008 17:37:52
 Размер:   400 MB  (
 Рейтинг:   4,9 (Голосов: 13)
 Поблагодарили:   31
 Проверка:   Оформление проверено модератором 30 Авг 2008 17:39:31
Как cкачать  ·  Как раздать  ·  Правильно оформить  ·  Поднять ратио!  
domovoi1983
Стаж: 11 лет 8 мес.
Сообщений: 35
Ratio: 8,357
Поблагодарили: 194
3.33%
дайте скачать то
Kalex
Администратор
Стаж: 12 лет 5 мес.
Сообщений: 33845
Ratio: 114,402
Поблагодарили: 13738
100%
nnm-club.gif
domovoi1983 писал(а):
дайте скачать

релизер будет немного позже, в соседних темах поищите комментарии по этому поводу.

_________________
NNMClub и IPv6/Teredo
... если преступников недостаточно, их надо создавать. Кому нужна нация, состоящая сплошь из законопослушных граждан? Какая от нее польза? А вот издайте законы, которые нельзя ни соблюдать, ни проводить в жизнь, ни объективно трактовать, и вы получите нацию нарушителей, а значит, сможете заработать на преступлениях... /Айн Рэнд, «Атлант расправил плечи»/
Nikolai-1970
Стаж: 10 лет 6 мес.
Сообщений: 45
Ratio: 10,474
100%
ussr.gif
Kalex писал(а): Перейти к сообщению
domovoi1983 писал(а):
дайте скачать

релизер будет немного позже, в соседних темах поищите комментарии по этому поводу.

Скоро минует пятилетка,когда уж он вернётся? :шок:
master-13
Новогодний эрудит Реставратор

Online
Стаж: 10 лет 9 мес.
Сообщений: 746
Ratio: 549,291
Поблагодарили: 40880
100%
Откуда: из пролетариев
ussr.gif
Властелины неба. Лётчик №1 (2007) [DVDRip]
Название: Властелины неба. Лётчик №1

Режиссер/Телекомпания: Александр Сидоров / ФГУ "141 Дом офицеров ВВС"
Год выпуска: 2007
Жанр: Документальный

Описание:
Фильм посвящен 95-и летию Военно-воздушных сил России. Рассказ ведется о военных авиаторах и их службе.

Продолжительность: 00:26:26
Перевод: Оригинальный

Видеокодек: XviD
Битрейт видео: 2001 kbps avg
Размер кадра: 720x416 (1.73:1)
Качество видео: DVDRip
Аудиокодек: MP3
Битрейт аудио: 100.66 kbps avg
Общее
Полное имя : I:\vvs90_5.avi
Формат : AVI
Формат/Информация : Audio Video Interleave
Размер файла : 400 Мбайт
Продолжительность : 26 м.
Режим общего битрейта : Переменный
Общий поток : 2115 Кбит/сек
Программа кодирования : VirtualDubMod 1.5.4.1 (build 2178/release)
Библиотека кодирования : VirtualDubMod build 2178/release

Видео
Идентификатор : 0
Формат : MPEG-4 Visual
Профиль формата : Advanced Simple@L5
Параметр BVOP формата : 1
Параметр QPel формата : Нет
Параметр GMC формата : Без точки перехода
Параметр матрицы формата : Выборочная
Идентификатор кодека : XVID
Идентификатор кодека/Подсказка : XviD
Продолжительность : 26 м.
Битрейт : 2002 Кбит/сек
Ширина : 720 пикселей
Высота : 416 пикселей
Соотношение сторон : 1,731
Частота кадров : 25,000 кадров/сек
Цветовое пространство : YUV
Субдискретизация насыщенности : 4:2:0
Битовая глубина : 8 бит
Тип развёртки : Прогрессивная
Метод сжатия : С потерями
Бит/(Пиксели*Кадры) : 0.267
Размер потока : 379 Мбайт (95%)
Библиотека кодирования : XviD 1.2.0.dev47 (UTC 2006-11-01)

Аудио
Идентификатор : 1
Формат : MPEG Audio
Версия формата : Version 1
Профиль формата : Layer 3
Режим : Joint stereo
Расширение режима : MS Stereo
Идентификатор кодека : 55
Идентификатор кодека/Подсказка : MP3
Продолжительность : 26 м.
Вид битрейта : Переменный
Битрейт : 101 Кбит/сек
Номинальный битрейт : 128 Кбит/сек
Каналы : 2 канала
Частота : 48,0 КГц
Метод сжатия : С потерями
Размер потока : 19,0 Мбайт (5%)
Выравнивание : Соединение по промежуткам
Продолжительность промежутка : 24 мс. (0,60 видеокадр)
Время предзагрузки промежутка : 503 мс.
Библиотека кодирования : LAME3.97
Настройки программы : -m j -V 4 -q 2 -lowpass 17 --abr 128
Скриншоты:
Другие серии фильма:
Властелины неба. Экипаж (2007) [DVDRip]
Властелины неба. Братишки (2007) [DVDRip]
Властелины неба. Такая работа... (2007) [DVDRip]
Властелины неба. Командир (2007) [DVDRip]


Время раздачи: с 09:00 до 24:00
Код:
[align=center][font="Tahoma"][size=20][b]Властелины неба. Лётчик №1 (2007) [DVDRip][/b][/size][/font][/align]
[poster=right]http://img4.imageshack.us/img4/8844/31ou.jpg[/poster]

[b]Название:[/b] Властелины неба. Лётчик №1

[b]Режиссер/Телекомпания:[/b] Александр Сидоров / ФГУ "141 Дом офицеров ВВС"
[b]Год выпуска:[/b] 2007
[b]Жанр:[/b] Документальный

[b]Описание:[/b]
Фильм посвящен 95-и летию Военно-воздушных сил России. Рассказ ведется о военных авиаторах и их службе.

[b]Продолжительность:[/b] 00:26:26
[b]Перевод:[/b] Оригинальный

[b]Видеокодек:[/b] XviD
[b]Битрейт видео:[/b] 2001 kbps avg
[b]Размер кадра:[/b] 720x416 (1.73:1)
[b]Качество видео:[/b] DVDRip
[b]Аудиокодек:[/b] MP3
[b]Битрейт аудио:[/b] 100.66 kbps avg

[hide=MediaInfo]Общее
Полное имя                               : I:\vvs90_5.avi
Формат                                   : AVI
Формат/Информация                        : Audio Video Interleave
Размер файла                             : 400 Мбайт
Продолжительность                        : 26 м.
Режим общего битрейта                    : Переменный
Общий поток                              : 2115 Кбит/сек
Программа кодирования                    : VirtualDubMod 1.5.4.1 (build 2178/release)
Библиотека кодирования                   : VirtualDubMod build 2178/release

Видео
Идентификатор                            : 0
Формат                                   : MPEG-4 Visual
Профиль формата                          : Advanced Simple@L5
Параметр BVOP формата                    : 1
Параметр QPel формата                    : Нет
Параметр GMC формата                     : Без точки перехода
Параметр матрицы формата                 : Выборочная
Идентификатор кодека                     : XVID
Идентификатор кодека/Подсказка           : XviD
Продолжительность                        : 26 м.
Битрейт                                  : 2002 Кбит/сек
Ширина                                   : 720 пикселей
Высота                                   : 416 пикселей
Соотношение сторон                       : 1,731
Частота кадров                           : 25,000 кадров/сек
Цветовое пространство                    : YUV
Субдискретизация насыщенности            : 4:2:0
Битовая глубина                          : 8 бит
Тип развёртки                            : Прогрессивная
Метод сжатия                             : С потерями
Бит/(Пиксели*Кадры)                      : 0.267
Размер потока                            : 379 Мбайт (95%)
Библиотека кодирования                   : XviD 1.2.0.dev47 (UTC 2006-11-01)

Аудио
Идентификатор                            : 1
Формат                                   : MPEG Audio
Версия формата                           : Version 1
Профиль формата                          : Layer 3
Режим                                    : Joint stereo
Расширение режима                        : MS Stereo
Идентификатор кодека                     : 55
Идентификатор кодека/Подсказка           : MP3
Продолжительность                        : 26 м.
Вид битрейта                             : Переменный
Битрейт                                  : 101 Кбит/сек
Номинальный битрейт                      : 128 Кбит/сек
Каналы                                   : 2 канала
Частота                                  : 48,0 КГц
Метод сжатия                             : С потерями
Размер потока                            : 19,0 Мбайт (5%)
Выравнивание                             : Соединение по промежуткам
Продолжительность промежутка             : 24  мс. (0,60 видеокадр)
Время предзагрузки промежутка            : 503  мс.
Библиотека кодирования                   : LAME3.97
Настройки программы                      : -m j -V 4 -q 2 -lowpass 17 --abr 128

[/hide]

[align=center][b]Скриншоты:[/b]
[url=http://img849.imageshack.us/img849/7066/zs0.png][img]http://img534.imageshack.us/img534/1688/xcuk.jpg[/img][/url]  [url=http://img4.imageshack.us/img4/7178/sq1.png][img]http://img221.imageshack.us/img221/2483/yyun.jpg[/img][/url]  [url=http://img507.imageshack.us/img507/2391/ehpc.png][img]http://img594.imageshack.us/img594/1700/o6hk.jpg[/img][/url]  [url=http://img189.imageshack.us/img189/8210/8ukn.png][img]http://img843.imageshack.us/img843/7046/iuzp.jpg[/img][/url]  [url=http://img833.imageshack.us/img833/9595/whge.png][img]http://img22.imageshack.us/img22/4218/ih4v.jpg[/img][/url]  [url=http://img534.imageshack.us/img534/8243/f9l.png][img]http://img401.imageshack.us/img401/8566/nlqe.jpg[/img][/url]  [url=http://img844.imageshack.us/img844/4364/owu.png][img]http://img195.imageshack.us/img195/450/voeu.jpg[/img][/url]  [url=http://img40.imageshack.us/img40/271/f0k.png][img]http://img96.imageshack.us/img96/366/w1o8.jpg[/img][/url][/align]

[hide=Дополнительные скриншоты][align=center][url=http://img404.imageshack.us/img404/6169/li74.png][img]http://img822.imageshack.us/img822/5856/m0qf.jpg[/img][/url]  [url=http://img706.imageshack.us/img706/7479/sxql.png][img]http://img259.imageshack.us/img259/623/0mrz.jpg[/img][/url]  [url=http://img839.imageshack.us/img839/1055/ouh.png][img]http://img405.imageshack.us/img405/3985/ou68.jpg[/img][/url]  [url=http://img809.imageshack.us/img809/9966/khc6.png][img]http://img12.imageshack.us/img12/3876/ejdu.jpg[/img][/url]  [url=http://img546.imageshack.us/img546/2174/5n1.png][img]http://img12.imageshack.us/img12/1639/gju2.jpg[/img][/url]  [url=http://img607.imageshack.us/img607/2389/0oas.png][img]http://img268.imageshack.us/img268/7379/1g3v.jpg[/img][/url]  [url=http://img199.imageshack.us/img199/8431/ao5.png][img]http://img843.imageshack.us/img843/4083/yy7n.jpg[/img][/url]  [url=http://img18.imageshack.us/img18/6334/m2ap.png][img]http://img507.imageshack.us/img507/2516/hjn5.jpg[/img][/url]  [url=http://img195.imageshack.us/img195/8848/n91p.png][img]http://img194.imageshack.us/img194/5012/7b4l.jpg[/img][/url]  [url=http://img543.imageshack.us/img543/5690/xsp.png][img]http://img51.imageshack.us/img51/3264/6pwx.jpg[/img][/url]  [url=http://img845.imageshack.us/img845/5503/s6cy.png][img]http://img707.imageshack.us/img707/1128/3rhe.jpg[/img][/url][/align][/hide]

[align=center][glow=blue][color=blue][b]Другие серии фильма:[/b][/color][/glow]
[url=http://nnmclub.to/forum/viewtopic.php?t=95140]Властелины неба. Экипаж (2007) [DVDRip][/url]
[url=http://nnmclub.to/forum/viewtopic.php?t=95261]Властелины неба. Братишки (2007) [DVDRip][/url]
[url=http://nnmclub.to/forum/viewtopic.php?t=95561]Властелины неба. Такая работа... (2007) [DVDRip][/url]
[url=http://nnmclub.to/forum/viewtopic.php?t=95849]Властелины неба. Командир (2007) [DVDRip][/url][/align]

[b]Время раздачи:[/b] с 09:00 до 24:00

_________________
230-220·0,5=5!
20-10:2=5!!
Показать сообщения:   
Начать новую тему   Ответить на тему    Торрент-трекер NNM-Club -> Документалистика и Телепередачи -> Авиация Часовой пояс: GMT + 3
Страница 1 из 1