Классический форум-трекер
canvas not supported
Нас вместе: 4 083 480
Платим за отзывы

Госпожа Америка / Mistress America (2015) BDRip [H.264/720p] [EN / EN Sub]


 
 
RSS
Начать новую тему   Ответить на тему    Торрент-трекер NNM-Club -> Архив торрентов -> Архив Видео
Автор Сообщение
smaster67 ®
Модератор Видео
Покровитель талантов Uploader 300+
Стаж: 10 лет 5 мес.
Сообщений: 7117
Ratio: 223,716
Поблагодарили: 215512
100%
Госпожа Америка / Mistress America (2015) BDRip [H.264/720p] [EN / EN Sub]

Производство: США, RT Features.
Жанр: комедия

Режиссер: Ноа Баумбак
Актеры: Сет Барриш, Джульетт Бретт, Андреа Чен, Майкл Чернус, Синди Чунг, Шена Даудесвелл, Кэтрин Эрбе, Джоэль Марш Гарлэнд, Грета Гервиг, Гэйл Голден, Ребекка Хендерсон

Описание:
Трейси - одинокая студентка нью-йоркского колледжа. Ее жизнь скоро изменится благодаря будущей сводной сестре Брук, любящей приключения и втягивающей Трейси в сумасшедшие эскапады.



Продолжительность: 01:24:18
Качество видео: BDRip
Перевод: Отсутствует
Язык озвучки: Английский
Язык субтитров: английский
Вид субтитров: вшитые, отключаемые

Видео: AVC, 1280x688 (1.860), 4045 kbps, 23,976 fps, 0,192 bpp
Аудио: английский / DTS / 5.1 / 48 kHz / 1510 kbps / 24 bit
Код:
General
Unique ID                              \Mistress.America.2015.720p.mkv
Format                                   : Matroska
Format version                           : Version 4 / Version 2
File size                                : 3.27 GiB
Duration                                 : 1h 24mn
Overall bit rate                         : 5 555 Kbps
Encoded date                             : UTC 2010-02-22 21:41:29
Writing application                      : no_variable_data
Writing library                          : no_variable_data

Video
ID                                       : 1
Format                                   : AVC
Format/Info                              : Advanced Video Codec
Format profile                           : High@L4.1
Format settings, CABAC                   : Yes
Format settings, ReFrames                : 5 frames
Codec ID                                 : V_MPEG4/ISO/AVC
Duration                                 : 1h 24mn
Bit rate                                 : 4 045 Kbps
Width                                    : 1 280 pixels
Height                                   : 688 pixels
Display aspect ratio                     : 1.860
Frame rate                               : 23.976 fps
Color space                              : YUV
Chroma subsampling                       : 4:2:0
Bit depth                                : 8 bits
Scan type                                : Progressive
Bits/(Pixel*Frame)                       : 0.192
Stream size                              : 2.32 GiB (71%)
Writing library                          : x264 core 148 r2638 7599210
Encoding settings                        : cabac=1 / ref=5 / deblock=1:-3:-3 / analyse=0x3:0x113 / me=umh / subme=8 / psy=1 / psy_rd=1.10:0.00 / mixed_ref=1 / me_range=24 / chroma_me=1 / trellis=1 / 8x8dct=1 / cqm=0 / deadzone=21,11 / fast_pskip=0 / chroma_qp_offset=-2 / threads=21 / lookahead_threads=3 / sliced_threads=0 / nr=0 / decimate=1 / interlaced=0 / bluray_compat=0 / constrained_intra=0 / bframes=3 / b_pyramid=2 / b_adapt=2 / b_bias=0 / direct=3 / weightb=1 / open_gop=0 / weightp=2 / keyint=240 / keyint_min=24 / scenecut=40 / intra_refresh=0 / rc_lookahead=50 / rc=2pass / mbtree=1 / bitrate=4045 / ratetol=1.0 / qcomp=0.60 / qpmin=0 / qpmax=69 / qpstep=4 / cplxblur=20.0 / qblur=0.5 / ip_ratio=1.40 / aq=3:0.80
Language                                 : English
Default                                  : Yes
Forced                                   : No
DURATION                                 : 01:24:18.095000000
NUMBER_OF_FRAMES                         : 121273
NUMBER_OF_BYTES                          : 2556673976
_STATISTICS_WRITING_APP                  : no_variable_data
_STATISTICS_WRITING_DATE_UTC             : 1970-01-01 00:00:00
_STATISTICS_TAGS                         : BPS DURATION NUMBER_OF_FRAMES NUMBER_OF_BYTES

Audio
ID                                       : 2
Format                                   : DTS
Format/Info                              : Digital Theater Systems
Codec ID                                 : A_DTS
Duration                                 : 1h 24mn
Bit rate mode                            : Constant
Bit rate                                 : 1 510 Kbps
Channel(s)                               : 6 channels
Channel positions                        : Front: L C R, Side: L R, LFE
Sampling rate                            : 48.0 KHz
Bit depth                                : 24 bits
Compression mode                         : Lossy
Stream size                              : 910 MiB (27%)
Language                                 : English
Default                                  : Yes
Forced                                   : No
DURATION                                 : 01:24:18.102000000
NUMBER_OF_FRAMES                         : 474197
NUMBER_OF_BYTES                          : 954084364
_STATISTICS_WRITING_APP                  : no_variable_data
_STATISTICS_WRITING_DATE_UTC             : 1970-01-01 00:00:00
_STATISTICS_TAGS                         : BPS DURATION NUMBER_OF_FRAMES NUMBER_OF_BYTES

Text #1
ID                                       : 3
Format                                   : UTF-8
Codec ID                                 : S_TEXT/UTF8
Codec ID/Info                            : UTF-8 Plain Text
Language                                 : English
Default                                  : No
Forced                                   : No
DURATION                                 : 01:23:46.020000000
NUMBER_OF_FRAMES                         : 2074
NUMBER_OF_BYTES                          : 63935
_STATISTICS_WRITING_APP                  : no_variable_data
_STATISTICS_WRITING_DATE_UTC             : 1970-01-01 00:00:00
_STATISTICS_TAGS                         : BPS DURATION NUMBER_OF_FRAMES NUMBER_OF_BYTES

Text #2
ID                                       : 4
Format                                   : UTF-8
Codec ID                                 : S_TEXT/UTF8
Codec ID/Info                            : UTF-8 Plain Text
Title                                    : SDH
Language                                 : English
Default                                  : No
Forced                                   : No
DURATION                                 : 01:23:46.020000000
NUMBER_OF_FRAMES                         : 2127
NUMBER_OF_BYTES                          : 65917
_STATISTICS_WRITING_APP                  : no_variable_data
_STATISTICS_WRITING_DATE_UTC             : 1970-01-01 00:00:00
_STATISTICS_TAGS                         : BPS DURATION NUMBER_OF_FRAMES NUMBER_OF_BYTES

Menu
00:00:00.000                             : en:00:00:00.000
00:05:12.020                             : en:00:05:12.020
00:09:03.168                             : en:00:09:03.168
00:12:21.574                             : en:00:12:21.574
00:15:26.592                             : en:00:15:26.592
00:18:10.089                             : en:00:18:10.089
00:20:56.297                             : en:00:20:56.297
00:24:38.143                             : en:00:24:38.143
00:27:30.065                             : en:00:27:30.065
00:30:37.210                             : en:00:30:37.210
00:32:51.303                             : en:00:32:51.303
00:36:23.681                             : en:00:36:23.681
00:39:24.862                             : en:00:39:24.862
00:42:04.147                             : en:00:42:04.147
00:45:20.635                             : en:00:45:20.635
00:48:18.646                             : en:00:48:18.646
00:51:11.485                             : en:00:51:11.485
00:54:32.186                             : en:00:54:32.186
00:58:43.603                             : en:00:58:43.603
01:03:48.908                             : en:01:03:48.908
01:06:45.168                             : en:01:06:45.168
01:11:08.556                             : en:01:11:08.556
01:15:55.551                             : en:01:15:55.551
01:22:06.964                             : en:01:22:06.964

Скриншоты:



Время раздачи: с 13:00 до 23:00
[NNM-Club.me]_Mistress.America.2015.720p.mkv.torrent
 Торрент: Серебряная раздча  Зарегистрирован
 
Зарегистрируйтесь и скачайте торрент!
16,5 KB
Free Leech
Примагнититься
 Зарегистрирован:   04 Дек 2015 07:43:42
 Размер:   3,27 GB  (
 Рейтинг:   4,3 (Голосов: 19)
 Поблагодарили:   51
 Проверка:   Оформление проверено модератором 04 Дек 2015 07:44:19
Как cкачать  ·  Как раздать  ·  Правильно оформить  ·  Поднять ратио!  
Loading...
Топик был перенесен из форума Фильмы в оригинале (HD, UHD, UHD-LQ) в форум Архив Видео



Исправил релиз - напиши ЛС karfagen1975, дав ссылку на релиз.
Если нет ответа 24 часа - нажми на кнопку "Обратить внимание модераторов".
Показать сообщения:   
Начать новую тему   Ответить на тему    Торрент-трекер NNM-Club -> Архив торрентов -> Архив Видео Часовой пояс: GMT + 3
Страница 1 из 1