Классический форум-трекер
canvas not supported
Нас вместе: 4 102 682

History Channel: Проклятие острова Оук / The Curse of Oak Island (2015) SATRip (сезон 3, серии 1-13 из 13)


Страницы:   Пред.  1, 2, 3, 4 
 
RSS
Начать новую тему   Ответить на тему    Торрент-трекер NNM-Club -> Зарубежные TV-бренды -> History Channel
Автор Сообщение
Born in USSR ®
Стаж: 5 лет 11 мес.
Сообщений: 45
Ratio: 1274,104
Раздал: 4,453 TB
Поблагодарили: 1099
100%
Откуда: Оттуда
ussr.gif
History Channel: Проклятие острова Оук - 3 сезон / The Curse of Oak Island - season 3 (2015) SATRip
Телекомпания: Студия: Prometheus Entertainment; HISTORY
Жанр: Документальный, Телепередача

Участники: Рик и Марти Лагина, Дэн Бланкеншип, Дэн Хенски, Крэйг Тестер и другие.

Описание:
Усилия двух братьев из Мичигана - США, в их попытке использовать современные технологии, чтобы обнаружить неизвестное сокровище или исторические артефакты, как они полагают, могут быть похоронены на острове Оук.
Остров Оук расположен на южном берегу Новой Шотландии , Канада.

Продолжительность: серии ~00:41:00
Качество видео: SATRip
Перевод: Одноголосый закадровый, профессиональный

Видео: X264, 720х576 widescreen anamorphic, 3017 Kbps
Аудио: MP3, 2 ch, 128 Kbps, CBR
Итак, Рик и Марти Лагина снова возвращаются на остров Оук.
Они обнаруживают, что не только скважина 10-Х содержит ещё больше тайн, чем считалось ранее, но имея новые технологии - может оказаться, что есть множество мест с сокровищами лежащих по всему острову.
В то время как Рик и Марти Лагина начали очистку опасных препятствий в 10-X, Крэйг Тестер и Джек Бегли проводят пробное бурение, чтобы найти предполагаемую золотую сокровищницу.
Братья Рик и Марти заказали тяжелое оборудование для землеройных работ на острове.
Теперь их первая цель - Сокровища Тамплиеров, как утверждает исследователь, лежат ниже.
После обнаружения оригинальной денежной шахты, Рик и Марти стали изучить древнюю каменную резьбу, которая может помочь доказать, кто скрывал здесь свои сокровища - португальские исследователи или тут присутствует след тамплиеров...
Перед подготовкой к отправке дайвера на исследовние 10-X, Рик и Марти вначале опускают беспилотную камеру на дно шахты и обнаруживают спорные доказательства того, что может и не стоит продолжать операцию...
Пока работы на 10-X приостановлены, Рик Лагина решил заняться историей камней...
Вырезанные на различных камнях, как утверждает теоретик - ключи, могут скрывать тайну империи ацтеков на Острове Оук...
После того, как перемирие давних соперников - Дэна Бланкеншипа и Фреда Нолана состоялось, Рик и Марти Лагина делают дальнейшие новые открытия...
Команда острова Оук снова делает новые открытия... Наконец то обнаружена пустота под слоем грунта и найден странный треугольный камень под водой.
Остров Оук и Христофор Колумб. Исследователям предлагают новую версию тайны острова...
Исследования 10-X мало мальски продвигаются и, снова "подводные камни"...
Ребята также получают меч - который как кажется кладоискателям, может быть отнесён к Римской Империи.
После получения результатов лабораторных анализов по поводу таинственного Римского меча, Рик, Марти и команда встретится с парой охотников за сокровищами, которые считают, что клад Дубового острова - расположен к северу от денежной шахты.
В Денежной шахте, на глубине 50 метров - команда обнаруживает таиственную пустоту, а Джон Чаттертон успешно достигает дна скважины 10-Х.
Смогут ли последние раскопки открыть спрятанные сокровища, или братья Лагина и их партнёры найдут ещё больше препятствий, а может и того хуже - они докажут, что смертельное проклятие действительно защищает секреты острова Оук?
Общее
Полное имя : D:\History Channel - The Curse of Oak Island 3\0001.avi
Формат : AVI
Формат/Информация : Audio Video Interleave
Размер файла : 931 Мбайт
Продолжительность : 41 м.
Общий поток : 3158 Кбит/сек

Видео
Идентификатор : 0
Формат : AVC
Формат/Информация : Advanced Video Codec
Профиль формата : Main@L3.0
Параметр CABAC формата : Да
Параметр ReFrames формата : 1 кадр
Идентификатор кодека : X264
Идентификатор кодека/Информация : XiWave GNU GPL x264 MPEG-4
Продолжительность : 41 м.
Битрейт : 3017 Кбит/сек
Ширина : 720 пикселей
Высота : 576 пикселей
Соотношение сторон : 16:9
Частота кадров : 25,000 кадров/сек
Стандарт вещания : PAL
Цветовое пространство : YUV
Субдискретизация насыщенности : 4:2:0
Битовая глубина : 8 бит
Тип развёртки : Прогрессивная
Бит/(Пиксели*Кадры) : 0.291
Размер потока : 889 Мбайт (96%)

Аудио
Идентификатор : 1
Формат : MPEG Audio
Версия формата : Version 1
Профиль формата : Layer 3
Идентификатор кодека : 55
Идентификатор кодека/Подсказка : MP3
Продолжительность : 41 м.
Вид битрейта : Постоянный
Битрейт : 128 Кбит/сек
Каналы : 2 канала
Частота : 44,1 КГц
Метод сжатия : С потерями
Размер потока : 37,7 Мбайт (4%)
Выравнивание : Разделение по промежуткам
Продолжительность промежутка : 26 мс. (0,65 видеокадр)
Время предзагрузки промежутка : 128 мс.
Скриншоты:


Время раздачи: с 8:00 до 22:00 мск (до первых 5-и скачавших, дальше по возможности.)
Сезон завершен.
Все раздачи, все сезоны сериала History Channel: Проклятие острова Оук / History Channel: The Curse of Oak Island
[NNMClub.to]_History Channel - The Curse of Oak Island 3.torrent
 Торрент: Платиновая раздача  Зарегистрирован
 
Скачать


Примагнититься
 Зарегистрирован:   11 Апр 2016 10:16:20
 Размер:   11,8 GB  (
 Рейтинг:   4,4 (Голосов: 86)
 Поблагодарили:   217
 Проверка:   Оформление проверено модератором 11 Апр 2016 10:25:58
Как cкачать  ·  Как раздать  ·  Правильно оформить  ·  Поднять ратио!  

_________________
С уважением, Владимир.
nutty-0
Стаж: 9 лет 7 мес.
Сообщений: 49
Ratio: 0,757
100%
Откуда: Шамбала
witch.png
а четвёртый сезон?

_________________
Laus Deo
Nibelung_007
Стаж: 11 лет 5 мес.
Сообщений: 166
Ratio: 45,075
Поблагодарили: 3191
100%
Откуда: Ixtlan
krevedko.png
nutty-0 писал(а): Перейти к сообщению
а четвёртый сезон?

Раздают у "конкурентов" https:// .org/forum/viewtopic.php?t=5339667
(для просмотра ссылки нужен ТОР или любой анонимайзер, т.к. "конкурент" наглухо заблочен "Роскомнадзором" у всех провайдеров, плюс, для скачивания, нужна регистрация).
Качество той раздачи HDTV 1080i и размер, соответственно качеству. Размер выложенных 17-ти серий (всего их будет 18) 50,5 Гб...
Показать сообщения:   
Начать новую тему   Ответить на тему    Торрент-трекер NNM-Club -> Зарубежные TV-бренды -> History Channel Часовой пояс: GMT + 3
Страницы:   Пред.  1, 2, 3, 4
Страница 4 из 4