Классический форум-трекер
canvas not supported
Нас вместе: 4 077 710

Сельская учительница (1947) SATRip [H.264]


 
 
RSS
Начать новую тему   Ответить на тему    Торрент-трекер NNM-Club -> Классика кино и Старые фильмы до 90-х -> Отечественная Классика (HD*Rip/LQ, DVDRip, SATRip, VHSRip)
Автор Сообщение
fomatash ®
Стаж: 6 лет
Сообщений: 160
Ratio: 492,798
Поблагодарили: 15520
100%
Откуда: Отсюда
uzbekistan.gif
Сельская учительница (1947) SATRip
Производство: СССР, Союздетфильм
Жанр: Военный, драма, мелодрама

Режиссер: Марк Донской
Актеры: Вера Марецкая, Даниил Сагал, Павел Оленев, Владимир Марута, Владимир Белокуров, Дмитрий Павлов, Володя Лепешинский, Анатолий Ганичев, Эмма Балашова, Боря Беляев, Олег Шмелев...

Описание:
Фильм о молоденькой девушке Варе, которая после окончания Петербургской гимназии едет учительствовать в далекое сибирское село. Непросто завоевывала «барышня из города» сердца местных жителей. Трагично складывается личная жизнь. Пережиты Первая мировая, Гражданская и Великая Отечественная войны, а Варенька все таже сельская учительница...



Продолжительность: 01:37:54
Качество: DVDRip
Формат: AVI
Видео кодек: DivX
Аудио кодек: AC3
Видео: 704x528 (1.33:1), 25 fps, DivX Codec 5.x or 6.x ~1673 kbps avg
Аудио: 48 kHz, AC3 Dolby Digital, 3/2 (L,C,R,l,r) + LFE ch, ~448.00 kbps avg
Код: выделить все

Общее
Полное имя                               : C:\Users\User\Download\Sel`skaja_uchitel`nica_DVDRip.avi
Формат                                   : AVI
Формат/Информация                        : Audio Video Interleave
Размер файла                             : 1,46 Гбайт
Продолжительность                        : 1 ч. 38 м.
Общий поток                              : 2132 Кбит/сек
Программа кодирования                    : VirtualDubModRus 1.5.10.2 (build 2542/release)
Библиотека кодирования                   : VirtualDubMod build 2542/release

Видео
Идентификатор                            : 0
Формат                                   : MPEG-4 Visual
Настройки формата                        : BVOP1
Параметр BVOP формата                    : 1
Параметр QPel формата                    : Нет
Параметр GMC формата                     : Без точки перехода
Параметр матрицы формата                 : Default (H.263)
Режим смешивания                         : Сжатый битовый поток
Идентификатор кодека                     : DX50
Идентификатор кодека/Подсказка           : DivX 5
Продолжительность                        : 1 ч. 38 м.
Битрейт                                  : 1674 Кбит/сек
Номинальный битрейт                      : 4854 Кбит/сек
Ширина                                   : 704 пикселя
Высота                                   : 528 пикселей
Соотношение сторон                       : 4:3
Частота кадров                           : 25,000 кадров/сек
Цветовое пространство                    : YUV
Субдискретизация насыщенности            : 4:2:0
Битовая глубина                          : 8 бит
Тип развёртки                            : Прогрессивная
Метод сжатия                             : С потерями
Бит/(Пиксели*Кадры)                      : 0.180
Размер потока                            : 1,15 Гбайт (79%)
Библиотека кодирования                   : DivX 6.8.3-6.8.4 (UTC 2008-06-07)

Аудио
Идентификатор                            : 1
Формат                                   : AC-3
Формат/Информация                        : Audio Coding 3
Коммерческое название                    : Dolby Digital
Идентификатор кодека                     : 2000
Продолжительность                        : 1 ч. 38 м.
Вид битрейта                             : Постоянный
Битрейт                                  : 448 Кбит/сек
Каналы                                   : 6 каналов
ChannelLayout                            : L R C LFE Ls Rs
Частота                                  : 48,0 КГц
Частота кадров                           : 31,250 кадров/сек (1536 SPF)
Битовая глубина                          : 16 бит
Метод сжатия                             : С потерями
Размер потока                            : 315 Мбайт (21%)
Выравнивание                             : Соединение по промежуткам
Продолжительность промежутка             : 40  мс. (1,00 видеокадр)
Время предзагрузки промежутка            : 512  мс.
ServiceKind/String                       : Complete Main

Скриншоты:


!!!Все релизы этого фильма в Клубе!!!
Время раздачи:с 23:00 до 5:00 по Москве
[NNMClub.to]_Sel`skaja_uchitel`nica_DVDRip.avi.torrent
 Торрент: Платиновая раздача  Зарегистрирован
 
Скачать


Примагнититься
 Зарегистрирован:   02 Сен 2019 18:37:04
 Размер:   1,46 GB  (
 Рейтинг:   4,5 (Голосов: 42)
 Поблагодарили:   131
 Проверка:   Оформление проверено модератором 02 Сен 2019 18:41:39
Как cкачать  ·  Как раздать  ·  Правильно оформить  ·  Поднять ратио!  

_________________
"Делай добро, бросай его в воду — оно не пропадёт, добром к тебе вернётся!"
В каждом пикселе аватара отражается душа.
NorthOn
 
Админ
Стаж: 13 лет 1 мес.
Сообщений: 12752
Ratio: 989,47
Поблагодарили: 14355
100%
nnm-club.gif
Торрент перерегистрирован в рамках акции Включаем DHT в древних раздачах
Теперь вам нужно его скачать и открыть в торрент-клиенте, указав в качестве места сохранения раздаваемый файл или папку.

_________________
Либо я найду путь, либо проложу его...
Petr Vojkov
Только чтение
Стаж: 1 год
Сообщений: 186
Ratio: 1,483
62.18%
Откуда: Париж
ussr.gif
Приятно смотреть фильм о настоящих людях, о настоящей жизни, которые фильм показывает с документальной точностью. Фильм о людях, которые создали сверхдержаву из колониального захолустья Европы, США и Японии.
Показать сообщения:   
Начать новую тему   Ответить на тему    Торрент-трекер NNM-Club -> Классика кино и Старые фильмы до 90-х -> Отечественная Классика (HD*Rip/LQ, DVDRip, SATRip, VHSRip) Часовой пояс: GMT + 3
Страница 1 из 1