Классический форум-трекер
canvas not supported
Нас вместе: 4 205 649

Dr. Stone / Доктор Стоун [2019, TV, 24 ep] WEB-DL 1080p Rus


 
 
RSS
Начать новую тему   Ответить на тему    Торрент-трекер NNM-Club -> Аниме с озвучкой -> Аниме с озвучкой (FullHD)
Автор Сообщение
Ampho_DnB ®
RG Аниме
Uploader 100+
Стаж: 10 лет 8 мес.
Сообщений: 4086
Ratio: 316.313
Поблагодарили: 95137
100%
Откуда: Деревня Кукуево
nnm-club.gif
Dr. Stone / Доктор Стоун
Жанр: приключения, комедия, драма
Тип: TV-сериал
Продолжительность: 24 эпизода по 25 минут
Выпуск: c 05.07.2019 по 13.12.2019
Автор: Инагаки Ритиро
Снято по манге: Dr. Stone
Режиссер: Ино Синъя
Производство: TMS
Информационные ссылки: AniDB || World Art || MAL || ANN
Релиз подготовлен студией HDRezka
  • Тип озвучки: Многоголосая, закадровая

Описание:
В начале XXI века из-за таинственной катастрофы всё человеческое население Земли единовременно окаменело! И лишь по прошествии тысячелетий в результате невероятного сочетания непонятных условий к жизни вернулся молодой гений Сенку. Ну а будучи человеком с научным складом ума, Сенку поставил перед собой три цели: выяснить, что приводит к снятию окаменения, возродить цивилизацию и выжить в мире, не знавшем человека более трёх тысяч лет. Достичь их становится проще, когда через полгода после пробуждения Сенку — 5 октября 5738-го — к жизни возвращается его одноклассник Тайдзю. С умом Сенку, силой Тайдзю и их общим упорством (ещё бы! Они были в сознании все эти тысячи лет — и не сошли с ума!) эти двое могут надеяться возродить человечество. Перед окаменением Тайдзю собирался признаться в истинных чувствах подруге детства Юдзурихе, и ради любви он вернёт её к жизни… с помощью Сенку, конечно же.
Качество: WEB-DLRip | Энкод: HDRezka
Язык озвучки: Русский
Формат: MKV
Видео: x264, 1920x1080, ~4 770 kbps, 23.976 fps
Аудио: AC-3, 192 kbps, 48.0 kHz, 2 ch
Субтитры: Русские надписи, неотключаемые
01. Каменный мир
02. Владыка каменного мира
03. Оружие науки
04. Зажечь сигнальный костёр
05. Начало каменного мира
06. Две страны каменного мира
07. Где находятся два миллиона лет
08. Каменная тропа
09. Я зажгу светило науки
10. Шаткий союз
11. Отчетливый мир
12. Друзья спиной друг к другу
13. Воин в маске
14. Повелитель огня
15. Результат двух миллионов лет работы
16. История, которой несколько тысяч лет
17. Сотня ночей и тысяча небес
18. Каменые войны
19. В современность
20. Эпоха энергии
21. Клуб спартанских ремёсел
22. Сокровища
23. На волне науки
24. Голос, уходящий в бесконечность
General
Unique ID : 186362755593544690644447680061659716929 (0x8C3429413B6A7B5B83BAF39253109D41)
Complete name : Dr. Stone [HDRezka]\Dr.Stone.S01E01.WEBRip.1080p.rus.2.0.HDREZKA.STUDIO.mkv
Format : Matroska
Format version : Version 4
File size : 903 MiB
Duration : 24 min 55 s
Overall bit rate mode : Variable
Overall bit rate : 5 063 kb/s
Writing application : Lavf58.33.100
Writing library : Lavf58.33.100
ErrorDetectionType : Per level 1

Video
ID : 1
Format : AVC
Format/Info : Advanced Video Codec
Format profile : High@L4.1
Format settings : CABAC / 1 Ref Frames
Format settings, CABAC : Yes
Format settings, Reference : 1 frame
Codec ID : V_MPEG4/ISO/AVC
Duration : 24 min 55 s
Bit rate mode : Variable
Bit rate : 4 770 kb/s
Maximum bit rate : 2 000 kb/s
Width : 1 920 pixels
Height : 1 080 pixels
Display aspect ratio : 16:9
Frame rate mode : Constant
Frame rate : 23.976 (24000/1001) FPS
Color space : YUV
Chroma subsampling : 4:2:0
Bit depth : 8 bits
Scan type : Progressive
Bits/(Pixel*Frame) : 0.096
Stream size : 850 MiB (94%)
Default : Yes
Forced : No

Audio
ID : 2
Format : AC-3
Format/Info : Audio Coding 3
Commercial name : Dolby Digital
Codec ID : A_AC3
Duration : 24 min 55 s
Bit rate mode : Constant
Bit rate : 192 kb/s
Channel(s) : 2 channels
Channel layout : L R
Sampling rate : 48.0 kHz
Frame rate : 31.250 FPS (1536 SPF)
Bit depth : 32 bits
Compression mode : Lossy
Stream size : 34.2 MiB (4%)
Service kind : Complete Main
Default : No
Forced : No


Время раздачи: До первых сидов
[NNMClub.to]_Dr. Stone [HDRezka].torrent
 Торрент: Платиновая раздача  Зарегистрирован
 
Скачать


Примагнититься
 Зарегистрирован:   15 Дек 2019 18:08:04
 Размер:   24 GB  (
 Рейтинг:   4.7 (Голосов: 67)
 Поблагодарили:   221
 Проверка:   Оформление проверено модератором 16 Дек 2019 22:24:54
Как cкачать  ·  Как раздать  ·  Правильно оформить  ·  Поднять ратио!  
Kiberyozheg
Стаж: 6 лет 3 мес.
Сообщений: 109
Ratio: 3.564
100%
Откуда: от верблюда
ussr.gif
Перед окаменением Тайдзю собирался признаться в истинных чувствах подруге детства Юдзурихе, но как говорится: "На безрыбье и рак - рыба" :подмигивание:
hagen000
Стаж: 10 лет 4 мес.
Сообщений: 431
Ratio: 6.375
Раздал: 6.993 TB
100%
Откуда: Оттуда
ussr.gif
HDRezka теперь аниме озвучивает? Интересно кто хоть даберы у них? Озвучка от AniPlague была очень даже хороша, кстати не увидел разницы с озвучкой от AniLibria, показалось, что вообще одни и те же люди озвучивают.
TenaX3000
Стаж: 10 лет 2 мес.
Сообщений: 109
Ratio: 6.009
73.48%
ukraine.gif
Очень годное аниме. И наука и юмор и сюжет пару интересных финтов подкидывает.

_________________
AMD FX8350 (4.4Ghz) / 16 Gb (2142Mhz) / GTX 1070 / Win 10 64 / SSD
Nick Wilde
Стаж: 13 лет 2 мес.
Сообщений: 151
Ratio: 14.755
Поблагодарили: 1266
100%
nnm-club.gif
Хотел скачать с качеством повыше, а скачал как всегда... Я уж не знаю что там сделала с видео HDRezka, но видео дергается! Особенно это заметно на панорамных съемках, при движении камеры. Зато теперь знаю почему такое название - HDRezka, если дословно, то резать HD (резать качество).
Показать сообщения:   
Начать новую тему   Ответить на тему    Торрент-трекер NNM-Club -> Аниме с озвучкой -> Аниме с озвучкой (FullHD) Часовой пояс: GMT + 3
Страница 1 из 1