Классический форум-трекер
canvas not supported
Нас вместе: 4 205 945

История игрушек. Трилогия / Disney Pixar -Toy Story / Toy Story 2 / Toy Story 3 (1995, 1999, 2010) [H.264] DVDRip


Страницы:   Пред.  1, 2 
 
RSS
Начать новую тему   Ответить на тему    Торрент-трекер NNM-Club -> Мультфильмы -> Зарубежные Мультфильмы (коллекции, сборники / *логии)
Автор Сообщение
almikl ®
Куратор Детского.
Модератор Видео.
RG Всё лучшее - детям!
Uploader 500+
Стаж: 15 лет 3 мес.
Сообщений: 5302
Ratio: 423.782
Поблагодарили: 130454
100%
Откуда: Дааалекое Подмосковье
russia.gif
История игрушек. Трилогия / Disney Pixar -Toy Story / Toy Story 2 / Toy Story 3 (1995, 1999, 2010) DVDRip
Русское название: История игрушек. Трилогия
Оригинальное название: Disney Pixar-Toy Story / Toy Story 2 / Toy Story 3
Год выпуска: 1995, 1999, 2010
Жанр: Компьютерная анимация, Детский, Приключения

Описание:
Каждый ребенок верит, что когда он оставляет свои игрушки одни, они начинают заниматься своими делами. Этот мультипликационный фильм позволяет убедиться им в своей правоте.
Основная идея фильма — каждая игрушка боится надоесть, стать забытой, замененной другой, так как весь смысл их существования доставлять счастье своим хозяевам.

Режиссер: Джон Лассетер

Перевод: Дублированный

Видеокодек: MPEG-4 AVC/H.264
Битрейт видео: ~1900 kbs
Размер кадра: 720х384
Качество видео: DVDRip
Аудиокодек:
1# Русский AC3 5.1 448 Кбит/сек
2# Английский AC3 5.1 448 Кбит/сек
3# Украинский AC3 5.1 448 Кбит/сек

История игрушек / Toy Story (1995) [H.264] DVDRip
Режиссеры: Джон Лэссетер
Продолжительность: 01:18:09
Описание: Мультфильм История игрушек – первый полнометражный фильм, полностью смоделированный на компьютере. Добро пожаловать в удивительный мир, в котором игрушки оживают, пока их хозяев нет дома!
Трогательная и забавная история о ковбое Вуди, космическом рейнджере Баззе Лайтере, собаке Спиральке, динозавре Рексе и других игрушках принадлежащих мальчику Энди, в которой повествуется о том, как трудно перестать быть любимой игрушкой, когда появляется новый претендент на лучшее местечко в сердце хозяина и о том, что настоящая дружба, в конечном итоге, способна преодолеть все преграды.

Мультфильм История игрушек от студий Disney Pixar, режиссерский дебют признанного мастера мультипликации Джона Лэссетера.
Image
-Британская академия (1997 г.)

-Номинация на лучшие визуальные эффекты

Оскар (1996 г.)

-Номинация на лучший сценарий
-Номинация на лучшую песню – «You've Got a Friend»
-Номинация на лучший саундтрек к музыкальному/комедийному фильму

Золотой глобус (1996 г.)

-Номинация на лучший фильм (комедия или мюзикл)
-Номинация на лучшую песню – «You Got a Friend in Me»

Премия канала «MTV» (1996 г.)

-Номинация на лучший экранный дуэт (Том Хэнкс, Тим Аллен)
Общее
Уникальный идентификатор : 204513986604252605555385447593494207583 (0x99DBF609A5D75DD6A2BBF848ABAC5C5F)
Полное имя : G:\_Reliz\Toy_Story_[nnm-club]\Toy_Story_1_[nnm-club].1995.DVDRip-AVC.h264.almikl.mkv
Формат : Matroska
Версия формата : Version 2
Размер файла : 1,79 Гбайт
Продолжительность : 1 ч. 17 м.
Общий поток : 3302 Кбит/сек
Дата кодирования : UTC 2013-01-17 08:01:39
Программа кодирования : mkvmerge v5.8.0 ('No Sleep / Pillow') built on Sep 2 2012 15:37:04
Библиотека кодирования : libebml v1.2.3 + libmatroska v1.3.0

Видео
Идентификатор : 1
Формат : AVC
Формат/Информация : Advanced Video Codec
Профиль формата : High@L4.1
Параметр CABAC формата : Да
Параметр ReFrames формата : 6 кадров
Идентификатор кодека : V_MPEG4/ISO/AVC
Продолжительность : 1 ч. 17 м.
Битрейт : 1956 Кбит/сек
Ширина : 720 пикселей
Высота : 384 пикселя
Соотношение сторон : 1,85:1
Режим частоты кадров : Постоянный
Частота кадров : 25,000 кадров/сек
Цветовое пространство : YUV
Субдискретизация насыщенности : 4:2:0
Битовая глубина : 8 бит
Тип развёртки : Прогрессивная
Бит/(Пиксели*Кадры) : 0.283
Размер потока : 1,03 Гбайт (57%)
Библиотека кодирования : x264 core 129 r2230 1cffe9f
Настройки программы : cabac=1 / ref=6 / deblock=1:-1:-1 / analyse=0x3:0x113 / me=umh / subme=10 / psy=1 / psy_rd=1.00:0.15 / mixed_ref=1 / me_range=32 / chroma_me=1 / trellis=2 / 8x8dct=1 / cqm=0 / deadzone=21,11 / fast_pskip=1 / chroma_qp_offset=-3 / threads=12 / lookahead_threads=2 / sliced_threads=0 / nr=0 / decimate=1 / interlaced=0 / bluray_compat=0 / constrained_intra=0 / bframes=10 / b_pyramid=2 / b_adapt=2 / b_bias=0 / direct=1 / weightb=1 / open_gop=0 / weightp=2 / keyint=250 / keyint_min=25 / scenecut=40 / intra_refresh=0 / rc_lookahead=40 / rc=2pass / mbtree=1 / bitrate=1956 / ratetol=1.0 / qcomp=0.60 / qpmin=10 / qpmax=51 / qpstep=4 / cplxblur=20.0 / qblur=0.5 / ip_ratio=1.40 / aq=1:1.00
Default : Да
Forced : Нет

Аудио #1
Идентификатор : 2
Формат : AC-3
Формат/Информация : Audio Coding 3
Расширение режима : CM (complete main)
Параметр Endianness формата : Big
Идентификатор кодека : A_AC3
Продолжительность : 1 ч. 17 м.
Вид битрейта : Постоянный
Битрейт : 448 Кбит/сек
Каналы : 6 каналов
Расположение каналов : Front: L C R, Side: L R, LFE
Частота : 48,0 КГц
Битовая глубина : 16 бит
Метод сжатия : С потерями
Размер потока : 249 Мбайт (14%)
Default : Да
Forced : Нет

Аудио #2
Идентификатор : 3
Формат : AC-3
Формат/Информация : Audio Coding 3
Расширение режима : CM (complete main)
Параметр Endianness формата : Big
Идентификатор кодека : A_AC3
Продолжительность : 1 ч. 17 м.
Вид битрейта : Постоянный
Битрейт : 448 Кбит/сек
Каналы : 6 каналов
Расположение каналов : Front: L C R, Side: L R, LFE
Частота : 48,0 КГц
Битовая глубина : 16 бит
Метод сжатия : С потерями
Размер потока : 249 Мбайт (14%)
Default : Нет
Forced : Нет

Аудио #3
Идентификатор : 4
Формат : AC-3
Формат/Информация : Audio Coding 3
Расширение режима : CM (complete main)
Параметр Endianness формата : Big
Идентификатор кодека : A_AC3
Продолжительность : 1 ч. 17 м.
Вид битрейта : Постоянный
Битрейт : 448 Кбит/сек
Каналы : 6 каналов
Расположение каналов : Front: L C R, Side: L R, LFE
Частота : 48,0 КГц
Битовая глубина : 16 бит
Метод сжатия : С потерями
Размер потока : 249 Мбайт (14%)
Default : Нет
Forced : Нет
Скриншоты:



История игрушек 2 / Toy Story 2 (1999) [H.264] DVDRip
Режиссеры: Джон Лэссетер, Эш Брэннон и Ли Анкрич
Продолжительность: 01:28:09
Описание: Даже несмышленый малыш знает то, о чем не догадывается ни один взрослый: если выключить в комнате свет и плотно закрыть за собой дверь, неподвижные игрушки оживут и отправятся в захватывающее путешествие.
Мультфильм История игрушек 2 – продолжение истории игрушек живущих в комнате мальчика Энди. На этот раз речь пойдет о.... похищении! Ковбоя Вуди похищает злобный коллекционер, так как Вуди оказывается редкой игрушкой, входившей в целый комплект, за который музей обещал отвалить крупную сумму.
В плену у коллекционера Вуди узнает о своем прошлом и находит свою семью, а его друзья во главе с Баззом Лайтером пускаются ему на выручку.

В замечательном мультфильме История игрушек 2 вы попадете в самый необычный мир, который только видели, и узнаете, в какие удивительные игры играют игрушки, когда вдалеке затихают ваши шаги.
Image
Оскар (2000 г.)

-Номинация на лучшую песню – «When She Loved Me»

Золотой глобус (2000 г.)
Лучший фильм (комедия или мюзикл)
-Номинация на лучшую песню – «When She Loved Me»

Премия канала «MTV» (2000 г.)

-Номинация на лучший экранный дуэт (Том Хэнкс, Тим Аллен)
Общее
Уникальный идентификатор : 230869116641334409360828131972316571078 (0xADAFC64575CB645A9ADCE1682D52A5C6)
Полное имя : G:\_Reliz\Toy_Story_[nnm-club]\Toy_Story_2_[nnm-club].1999.DVDRip-AVC.h264.almikl.mkv
Формат : Matroska
Версия формата : Version 2
Размер файла : 1,98 Гбайт
Продолжительность : 1 ч. 28 м.
Общий поток : 3202 Кбит/сек
Дата кодирования : UTC 2013-01-17 10:37:28
Программа кодирования : mkvmerge v5.8.0 ('No Sleep / Pillow') built on Sep 2 2012 15:37:04
Библиотека кодирования : libebml v1.2.3 + libmatroska v1.3.0

Видео
Идентификатор : 1
Формат : AVC
Формат/Информация : Advanced Video Codec
Профиль формата : High@L4.1
Параметр CABAC формата : Да
Параметр ReFrames формата : 6 кадров
Идентификатор кодека : V_MPEG4/ISO/AVC
Продолжительность : 1 ч. 28 м.
Битрейт : 1856 Кбит/сек
Ширина : 720 пикселей
Высота : 384 пикселя
Соотношение сторон : 1,85:1
Режим частоты кадров : Постоянный
Частота кадров : 25,000 кадров/сек
Цветовое пространство : YUV
Субдискретизация насыщенности : 4:2:0
Битовая глубина : 8 бит
Тип развёртки : Прогрессивная
Бит/(Пиксели*Кадры) : 0.269
Размер потока : 1,11 Гбайт (56%)
Библиотека кодирования : x264 core 129 r2230 1cffe9f
Настройки программы : cabac=1 / ref=6 / deblock=1:-1:-1 / analyse=0x3:0x113 / me=umh / subme=10 / psy=1 / psy_rd=1.00:0.15 / mixed_ref=1 / me_range=32 / chroma_me=1 / trellis=2 / 8x8dct=1 / cqm=0 / deadzone=21,11 / fast_pskip=1 / chroma_qp_offset=-3 / threads=12 / lookahead_threads=2 / sliced_threads=0 / nr=0 / decimate=1 / interlaced=0 / bluray_compat=0 / constrained_intra=0 / bframes=10 / b_pyramid=2 / b_adapt=2 / b_bias=0 / direct=1 / weightb=1 / open_gop=0 / weightp=2 / keyint=250 / keyint_min=25 / scenecut=40 / intra_refresh=0 / rc_lookahead=40 / rc=2pass / mbtree=1 / bitrate=1856 / ratetol=1.0 / qcomp=0.60 / qpmin=10 / qpmax=51 / qpstep=4 / cplxblur=20.0 / qblur=0.5 / ip_ratio=1.40 / aq=1:1.00
Default : Да
Forced : Нет

Аудио #1
Идентификатор : 2
Формат : AC-3
Формат/Информация : Audio Coding 3
Расширение режима : CM (complete main)
Параметр Endianness формата : Big
Идентификатор кодека : A_AC3
Продолжительность : 1 ч. 28 м.
Вид битрейта : Постоянный
Битрейт : 448 Кбит/сек
Каналы : 6 каналов
Расположение каналов : Front: L C R, Side: L R, LFE
Частота : 48,0 КГц
Битовая глубина : 16 бит
Метод сжатия : С потерями
Размер потока : 284 Мбайт (14%)
Default : Да
Forced : Нет

Аудио #2
Идентификатор : 3
Формат : AC-3
Формат/Информация : Audio Coding 3
Расширение режима : CM (complete main)
Параметр Endianness формата : Big
Идентификатор кодека : A_AC3
Продолжительность : 1 ч. 28 м.
Вид битрейта : Постоянный
Битрейт : 448 Кбит/сек
Каналы : 6 каналов
Расположение каналов : Front: L C R, Side: L R, LFE
Частота : 48,0 КГц
Битовая глубина : 16 бит
Метод сжатия : С потерями
Размер потока : 284 Мбайт (14%)
Default : Нет
Forced : Нет

Аудио #3
Идентификатор : 4
Формат : AC-3
Формат/Информация : Audio Coding 3
Расширение режима : CM (complete main)
Параметр Endianness формата : Big
Идентификатор кодека : A_AC3
Продолжительность : 1 ч. 28 м.
Вид битрейта : Постоянный
Битрейт : 448 Кбит/сек
Каналы : 6 каналов
Расположение каналов : Front: L C R, Side: L R, LFE
Частота : 48,0 КГц
Битовая глубина : 16 бит
Метод сжатия : С потерями
Размер потока : 284 Мбайт (14%)
Default : Нет
Forced : Нет
Скриншоты:



История игрушек: Большой побег / Toy Story 3 (2010) DVDRip
Режиссер: Ли Анкрич / Li Ankrich
Актеры: Том Хэнкс, Тим Аллен, Джоан Кьюсак, Нед Битти, Дон Риклз, Майкл Китон, Уоллес Шоун, Джон Ратценбергер, Эстелль Харрис, Джон Моррис
Продолжительность: 01:38:22
Описание фильма:Вуди, Базз и остальные игрушки оказываются в детском саду после того, как их хозяин Энди уезжает в колледж.

Image
Общее
Уникальный идентификатор : 247976452644007491919105652895780946423 (0xBA8E870E7FFCF9F08DB7580FA65FC1F7)
Полное имя : G:\_Reliz\Toy_Story_[nnm-club]\Toy_Story_3_[nnm-club].2010.DVDRip-AVC.h264.almikl.mkv
Формат : Matroska
Версия формата : Version 2
Размер файла : 2,06 Гбайт
Продолжительность : 1 ч. 38 м.
Общий поток : 3002 Кбит/сек
Дата кодирования : UTC 2013-01-17 13:31:31
Программа кодирования : mkvmerge v5.8.0 ('No Sleep / Pillow') built on Sep 2 2012 15:37:04
Библиотека кодирования : libebml v1.2.3 + libmatroska v1.3.0

Видео
Идентификатор : 1
Формат : AVC
Формат/Информация : Advanced Video Codec
Профиль формата : High@L4.1
Параметр CABAC формата : Да
Параметр ReFrames формата : 6 кадров
Идентификатор кодека : V_MPEG4/ISO/AVC
Продолжительность : 1 ч. 38 м.
Битрейт : 1656 Кбит/сек
Ширина : 720 пикселей
Высота : 384 пикселя
Соотношение сторон : 1,85:1
Режим частоты кадров : Постоянный
Частота кадров : 25,000 кадров/сек
Цветовое пространство : YUV
Субдискретизация насыщенности : 4:2:0
Битовая глубина : 8 бит
Тип развёртки : Прогрессивная
Бит/(Пиксели*Кадры) : 0.240
Размер потока : 1,10 Гбайт (53%)
Библиотека кодирования : x264 core 129 r2230 1cffe9f
Настройки программы : cabac=1 / ref=6 / deblock=1:-1:-1 / analyse=0x3:0x113 / me=umh / subme=10 / psy=1 / psy_rd=1.00:0.15 / mixed_ref=1 / me_range=32 / chroma_me=1 / trellis=2 / 8x8dct=1 / cqm=0 / deadzone=21,11 / fast_pskip=1 / chroma_qp_offset=-3 / threads=12 / lookahead_threads=2 / sliced_threads=0 / nr=0 / decimate=1 / interlaced=0 / bluray_compat=0 / constrained_intra=0 / bframes=10 / b_pyramid=2 / b_adapt=2 / b_bias=0 / direct=1 / weightb=1 / open_gop=0 / weightp=2 / keyint=250 / keyint_min=25 / scenecut=40 / intra_refresh=0 / rc_lookahead=40 / rc=2pass / mbtree=1 / bitrate=1656 / ratetol=1.0 / qcomp=0.60 / qpmin=10 / qpmax=51 / qpstep=4 / cplxblur=20.0 / qblur=0.5 / ip_ratio=1.40 / aq=1:1.00
Default : Да
Forced : Нет

Аудио #1
Идентификатор : 2
Формат : AC-3
Формат/Информация : Audio Coding 3
Расширение режима : CM (complete main)
Параметр Endianness формата : Big
Идентификатор кодека : A_AC3
Продолжительность : 1 ч. 38 м.
Вид битрейта : Постоянный
Битрейт : 448 Кбит/сек
Каналы : 6 каналов
Расположение каналов : Front: L C R, Side: L R, LFE
Частота : 48,0 КГц
Битовая глубина : 16 бит
Метод сжатия : С потерями
Размер потока : 315 Мбайт (15%)
Default : Да
Forced : Нет

Аудио #2
Идентификатор : 3
Формат : AC-3
Формат/Информация : Audio Coding 3
Расширение режима : CM (complete main)
Параметр Endianness формата : Big
Идентификатор кодека : A_AC3
Продолжительность : 1 ч. 38 м.
Вид битрейта : Постоянный
Битрейт : 448 Кбит/сек
Каналы : 6 каналов
Расположение каналов : Front: L C R, Side: L R, LFE
Частота : 48,0 КГц
Битовая глубина : 16 бит
Метод сжатия : С потерями
Размер потока : 315 Мбайт (15%)
Default : Нет
Forced : Нет

Аудио #3
Идентификатор : 4
Формат : AC-3
Формат/Информация : Audio Coding 3
Расширение режима : CM (complete main)
Параметр Endianness формата : Big
Идентификатор кодека : A_AC3
Продолжительность : 1 ч. 38 м.
Вид битрейта : Постоянный
Битрейт : 448 Кбит/сек
Каналы : 6 каналов
Расположение каналов : Front: L C R, Side: L R, LFE
Частота : 48,0 КГц
Битовая глубина : 16 бит
Метод сжатия : С потерями
Размер потока : 315 Мбайт (15%)
Default : Нет
Forced : Нет
Скриншоты:


Скриншоты:




Время раздачи: 24\7, до 10 скачавших
Релиз-группа: by almikl ® &
Все релизы История игрушек DVDRip на NNM-CLUB
Toy_Story_[nnm-club].torrent
 Торрент: Платиновая раздача  Зарегистрирован
 
Скачать


 Зарегистрирован:   23 Янв 2013 09:35:51
 Размер:   5.84 GB  (
 Рейтинг:   4.8 (Голосов: 214)
 Поблагодарили:   1001
 Проверка:   Оформление проверено модератором 24 Янв 2013 07:36:57
Как cкачать  ·  Как раздать  ·  Правильно оформить  ·  Поднять ратио!  
almikl ®
Куратор Детского.
Модератор Видео.
RG Всё лучшее - детям!
Uploader 500+
Стаж: 15 лет 3 мес.
Сообщений: 5302
Ratio: 423.782
Поблагодарили: 130454
100%
Откуда: Дааалекое Подмосковье
russia.gif
jonybs
Будет
Krracken
Стаж: 12 лет
Сообщений: 19
Ratio: 209.959
100%
pirates.png
Таки да, досада какая, на ТВ LG проигрыватель не видит других аудио дорожек. Только дочку расстроил.
Показать сообщения:   
Начать новую тему   Ответить на тему    Торрент-трекер NNM-Club -> Мультфильмы -> Зарубежные Мультфильмы (коллекции, сборники / *логии) Часовой пояс: GMT + 3
Страницы:   Пред.  1, 2
Страница 2 из 2