Классический форум-трекер
canvas not supported
Нас вместе: 4 093 750

Мужчина нарасхват / Playing for Keeps (2012) BDRip


 
 
RSS
Начать новую тему   Ответить на тему    Торрент-трекер NNM-Club -> Зарубежное кино -> Зарубежные Фильмы (HD*Rip/LQ, DVDRip, SATRip, VHSRip)
Автор Сообщение
Yarmak23 ®
Стаж: 8 лет 10 мес.
Сообщений: 354
Ratio: 33,836
Раздал: 3,697 TB
Поблагодарили: 64047
100%
russia.gif
Мужчина нарасхват / Playing for Keeps (2012) BDRip
Русское название: Мужчина нарасхват
Оригинальное название: Playing for Keeps
Год выпуска: 2012
Производство: США
Жанр: Мелодрама, Комедия, Драма
Перевод: Профессиональный (дублированный) |Лицензия|
Cубтитры: нет
Дата мировой премьеры: 5 декабря 2012
Дата российской премьеры: 6 декабря 2012, «UPI»
Дата выхода DVD релиза: 28 февраля 2013, «Флагман-Трейд»
Режиссер: Габриэль Муччино / Gabriele Muccino
Актеры: Джерард Батлер (George), Джессика Бил (Stacie), Ума Турман (Patti), Кэтрин Зета-Джонс (Denise), Деннис Куэйд (Carl), Ной Ломакс (Lewis), Джеймс Таппер (Matt), Джуди Грир (Barb), Абелла Уайсс (Ally), Грант Гудман (Billy), Грант Коллинз (Griffin), Эйдан Поттер (Hunter)
Описание фильма:
Звезда футбола и просто шикарный мужчина по воле случая становится тренером детской футбольной команды. С этого момента для своих подопечных и их обольстительных мамочек он — «Мужчина нарасхват»…

Релиз от:
Автор рипа: Yarmak23

Продолжительность: 01:45:16
Качество видео: BDRip
Видео: 640x272 (2.35:1), 24.000 fps, XviD 65 ~858 kbps avg, 0.205 bit/pixel
Аудио: 48 kHz, MPEG Layer 3, 2 ch, 128.00 kbps Constant |Дубляж|

Скачать: Сэмпл
General
Complete name : Muzhchina.narashvat.2012.D.BDRip.745GB_by_Yarmak23.avi
Format : AVI
Format/Info : Audio Video Interleave
File size : 749 MiB
Duration : 1h 45mn
Overall bit rate : 995 Kbps
Writing application : VirtualDubModRus 1.5.10.2 (build 2542/release)
Writing library : VirtualDubMod build 2542/release

Video
ID : 0
Format : MPEG-4 Visual
Format profile : Advanced Simple@L5
Format settings, BVOP : 1
Format settings, QPel : No
Format settings, GMC : No warppoints
Format settings, Matrix : Custom
Codec ID : XVID
Codec ID/Hint : XviD
Duration : 1h 45mn
Bit rate : 858 Kbps
Width : 640 pixels
Height : 272 pixels
Display aspect ratio : 2.35:1
Frame rate : 24.000 fps
Color space : YUV
Chroma subsampling : 4:2:0
Bit depth : 8 bits
Scan type : Progressive
Compression mode : Lossy
Bits/(Pixel*Frame) : 0.205
Stream size : 646 MiB (86%)
Writing library : XviD 65

Audio
ID : 1
Format : MPEG Audio
Format version : Version 1
Format profile : Layer 3
Mode : Joint stereo
Mode extension : MS Stereo
Codec ID : 55
Codec ID/Hint : MP3
Duration : 1h 45mn
Bit rate mode : Constant
Bit rate : 128 Kbps
Channel(s) : 2 channels
Sampling rate : 48.0 KHz
Compression mode : Lossy
Stream size : 96.4 MiB (13%)
Alignment : Aligned on interleaves
Interleave, duration : 42 ms (1.00 video frame)
Interleave, preload duration : 504 ms
Скриншоты:

Время раздачи: 24/7 (до 7 скачавших)
[NNM-Club.ru]_Muzhchina.narashvat.2012.D.BDRip.745GB_by_Yarmak23.avi.torrent
 Торрент: Платиновая раздача  Зарегистрирован
 
Скачать


Примагнититься
 Зарегистрирован:   13 Май 2013 19:04:16
 Размер:   749 MB  (
 Рейтинг:   4,7 (Голосов: 57)
 Поблагодарили:   242
 Проверка:   Оформление проверено модератором 14 Май 2013 04:41:35
Как cкачать  ·  Как раздать  ·  Правильно оформить  ·  Поднять ратио!  
Yarmak23 ®
Стаж: 8 лет 10 мес.
Сообщений: 354
Ratio: 33,836
Раздал: 3,697 TB
Поблагодарили: 64047
100%
russia.gif
Всем приятного просмотра.
Гарп-П
Стаж: 8 лет 9 мес.
Сообщений: 34
Ratio: 4,566
100%
russia.gif
Я не любитель мелодрам(скачал по просьбе жены),но посмотрел с удовольствием и нисколько не жаль потраченного времени.Качество видео и звука нормальное,автору раздачи СПАСИБО.
TramPamPom
Стаж: 8 лет 10 мес.
Сообщений: 12
Ratio: 0,965
Поблагодарили: 169
100%
Одна из тех редких мелодрам, которые рекомендую посмотреть нелюбителям этого жанра.
Виктлория
Стаж: 8 лет 1 мес.
Сообщений: 120
Ratio: 3,219
100%
russia.gif
хороший фильм с Батлером)
Vosik85
Стаж: 7 лет 10 мес.
Сообщений: 238
Ratio: 5,044
100%
ukraine.gif
Фильм не о чем. Концовка тупо предсказуема(((
Показать сообщения:   
Начать новую тему   Ответить на тему    Торрент-трекер NNM-Club -> Зарубежное кино -> Зарубежные Фильмы (HD*Rip/LQ, DVDRip, SATRip, VHSRip) Часовой пояс: GMT + 3
Страница 1 из 1