Классический форум-трекер
canvas not supported
Нас вместе: 4 093 492

Идеальное убийство / A Perfect Murder (1998) BDRip [H.264]


 
 
RSS
Начать новую тему   Ответить на тему    Торрент-трекер NNM-Club -> Зарубежное кино -> Зарубежные Фильмы (HD*Rip/LQ, DVDRip, SATRip, VHSRip)
Автор Сообщение
Gevolt ®
Update 100+
Стаж: 8 лет 3 мес.
Сообщений: 890
Ratio: 4877,064
Раздал: 196,5 TB
Поблагодарили: 94311
100%
Откуда: Нижний Новгород
Идеальное убийство / A Perfect Murder (1998) BDRip [H.264]
Производство: США
Жанр: Триллер, драма, криминал

Режиссер: Эндрю Дэвис
Актеры: Майкл Дуглас (Steven Taylor), Гвинет Пэлтроу (Emily Bradford Taylor), Вигго Мортенсен (David Shaw), Дэвид Суше (Mohamed Karaman), Сарита Чоудхури (Raquel Martinez), Майкл П. Моран (Bobby Fain), Новелла Нельсон (Ambassador Alice Wills), Констанс Тауэрс (Sandra Bradford), Уилл Лиман (Jason Gates), Маив МакГуайр (Ann Gates), Стивен Сингер (Effete Man at Met), Лоринда Баррет (Met Woman #1)

Описание:
Преуспевающий бизнесмен Стивен Тэйлор, испытывающий серьезные трудности на работе, грозящие ему разорением, узнает, что жена Эмили, женщина очень богатая, изменяет ему с художником Дэвидом.
Наведя справки, он узнает, что Дэвид вовсе не художник, а брачный аферист с солидным «послужным» списком и рядом отсидок в тюрьме. Встретившись с Дэвидом, Стивен предлагает ему 500 тысяч долларов за убийство собственной жены…



Продолжительность: 01:47:26
Перевод: Дублированный, многоголосый закадровый, авторский
Язык субтитров: Русские (full, forced), английские (full, SDH)
Вид субтитров: Вшитые отключаемые

Рип от: 0ptimus[/font]
Качество видео: BDRip

Видео: AVC/H.264, 1024x576, ~3177 Kbps
Аудио 1: AC3, 6 ch, 384 Kbps - Русский Дублированный (Мост Видео)
Аудио 2: AC3, 2 ch, 192 Kbps - русский дублированный (Варус-Видео)
Аудио 3: AC3, 2 ch, 192 Kbps- русский многоголосый (ТК Россия)
Аудио 4: AC3, 6 ch, 448 Kbps- Авторский (Ю.Живов)
Аудио 5: AC3, 6 ch, 448 Kbps- Английский
General
Unique ID : 185759448439329326298686922827510333164 (0x8BBFF7EA6324FE2B9ECCE4C22D043EEC)
Complete name : G:\Idealnoe.ubijstvo.1998.(x264).BDRip.mkv
Format : Matroska
Format version : Version 2
File size : 3.63 GiB
Duration : 1h 47mn
Overall bit rate : 4 840 Kbps
Movie name : Идеальное убийство / A Perfect Murder [1998] -=BDRip (AVC) by 0ptimus=-
Encoded date : UTC 2012-10-22 07:04:10
Writing application : mkvmerge v5.8.0 ('No Sleep / Pillow') built on Sep 2 2012 15:37:04
Writing library : libebml v1.2.3 + libmatroska v1.3.0

Video
ID : 1
Format : AVC
Format/Info : Advanced Video Codec
Format profile : High@L4.1
Format settings, CABAC : Yes
Format settings, ReFrames : 7 frames
Codec ID : V_MPEG4/ISO/AVC
Duration : 1h 47mn
Bit rate : 3 177 Kbps
Width : 1 024 pixels
Height : 576 pixels
Display aspect ratio : 16:9
Frame rate : 23.976 fps
Color space : YUV
Chroma subsampling : 4:2:0
Bit depth : 8 bits
Scan type : Progressive
Bits/(Pixel*Frame) : 0.225
Stream size : 2.31 GiB (64%)
Title : Rip by 0ptimus
Writing library : x264 core 125 r2208 d9d2288
Encoding settings : cabac=1 / ref=7 / deblock=1:-3:-3 / analyse=0x3:0x113 / me=esa / subme=11 / psy=1 / psy_rd=1.00:0.20 / mixed_ref=1 / me_range=32 / chroma_me=1 / trellis=2 / 8x8dct=1 / cqm=0 / deadzone=21,11 / fast_pskip=0 / chroma_qp_offset=-3 / threads=4 / lookahead_threads=1 / sliced_threads=0 / nr=0 / decimate=0 / interlaced=0 / bluray_compat=0 / constrained_intra=0 / bframes=9 / b_pyramid=2 / b_adapt=2 / b_bias=0 / direct=3 / weightb=1 / open_gop=0 / weightp=2 / keyint=240 / keyint_min=23 / scenecut=40 / intra_refresh=0 / rc_lookahead=40 / rc=2pass / mbtree=0 / bitrate=3177 / ratetol=1.0 / qcomp=0.60 / qpmin=0 / qpmax=69 / qpstep=4 / cplxblur=20.0 / qblur=0.5 / vbv_maxrate=50000 / vbv_bufsize=50000 / nal_hrd=none / ip_ratio=1.40 / pb_ratio=1.30 / aq=1:1.00
Language : English
Default : Yes
Forced : Yes

Audio #1
ID : 2
Format : AC-3
Format/Info : Audio Coding 3
Mode extension : CM (complete main)
Format settings, Endianness : Big
Codec ID : A_AC3
Duration : 1h 47mn
Bit rate mode : Constant
Bit rate : 384 Kbps
Channel(s) : 6 channels
Channel positions : Front: L C R, Side: L R, LFE
Sampling rate : 48.0 KHz
Bit depth : 16 bits
Compression mode : Lossy
Stream size : 295 MiB (8%)
Title : Дублированный [Мост-Видео]
Language : Russian
Default : Yes
Forced : Yes

Audio #2
ID : 3
Format : AC-3
Format/Info : Audio Coding 3
Mode extension : CM (complete main)
Format settings, Endianness : Big
Codec ID : A_AC3
Duration : 1h 47mn
Bit rate mode : Constant
Bit rate : 192 Kbps
Channel(s) : 2 channels
Channel positions : Front: L R
Sampling rate : 48.0 KHz
Bit depth : 16 bits
Compression mode : Lossy
Stream size : 148 MiB (4%)
Title : Дублированный [Varus Video]
Language : Russian
Default : No
Forced : No

Audio #3
ID : 4
Format : AC-3
Format/Info : Audio Coding 3
Mode extension : CM (complete main)
Format settings, Endianness : Big
Codec ID : A_AC3
Duration : 1h 47mn
Bit rate mode : Constant
Bit rate : 192 Kbps
Channel(s) : 2 channels
Channel positions : Front: L R
Sampling rate : 48.0 KHz
Bit depth : 16 bits
Compression mode : Lossy
Stream size : 148 MiB (4%)
Title : Многоголосый [ТК "Россия"]
Language : Russian
Default : No
Forced : No

Audio #4
ID : 5
Format : AC-3
Format/Info : Audio Coding 3
Mode extension : CM (complete main)
Format settings, Endianness : Big
Codec ID : A_AC3
Duration : 1h 47mn
Bit rate mode : Constant
Bit rate : 448 Kbps
Channel(s) : 6 channels
Channel positions : Front: L C R, Side: L R, LFE
Sampling rate : 48.0 KHz
Bit depth : 16 bits
Compression mode : Lossy
Stream size : 344 MiB (9%)
Title : Авторский [Юрий Живов]
Language : Russian
Default : No
Forced : No

Audio #5
ID : 6
Format : AC-3
Format/Info : Audio Coding 3
Mode extension : CM (complete main)
Format settings, Endianness : Big
Codec ID : A_AC3
Duration : 1h 47mn
Bit rate mode : Constant
Bit rate : 448 Kbps
Channel(s) : 6 channels
Channel positions : Front: L C R, Side: L R, LFE
Sampling rate : 48.0 KHz
Bit depth : 16 bits
Compression mode : Lossy
Stream size : 344 MiB (9%)
Language : English
Default : No
Forced : No

Text #1
ID : 7
Format : UTF-8
Codec ID : S_TEXT/UTF8
Codec ID/Info : UTF-8 Plain Text
Title : Forced
Language : Russian
Default : Yes
Forced : No

Text #2
ID : 8
Format : UTF-8
Codec ID : S_TEXT/UTF8
Codec ID/Info : UTF-8 Plain Text
Title : Full
Language : Russian
Default : No
Forced : No

Text #3
ID : 9
Format : UTF-8
Codec ID : S_TEXT/UTF8
Codec ID/Info : UTF-8 Plain Text
Title : Full
Language : English
Default : No
Forced : No

Text #4
ID : 10
Format : UTF-8
Codec ID : S_TEXT/UTF8
Codec ID/Info : UTF-8 Plain Text
Title : Full - SDH
Language : English
Default : No
Forced : No

Menu
00:00:00.000 : :Lofty Liaison (Credits)
00:02:14.008 : :Stolen Moments.
00:08:09.864 : :Thinking Chernobyl and Heaven.
00:10:53.819 : :Playing with Fire.
00:13:18.339 : :Steven's Proposition.
00:19:59.656 : :My Word Against Yours.
00:22:32.225 : :David's Interests.
00:27:28.897 : :The Plan.
00:32:49.676 : :Altered Plans.
00:37:12.480 : :It's Too Late.
00:39:03.007 : :Wish Me Luck.
00:41:31.822 : :The Time and the Place.
00:45:06.078 : :Attacked.
00:48:25.903 : :Setting the Scene.
00:51:29.086 : :"My Wife Has No Enemies."
00:55:51.139 : :Same Language.
00:58:50.944 : :News to David.
01:03:31.265 : :Waiting Game.
01:06:28.818 : :Emily Gets to the Point.
01:09:44.388 : :Lucky Guy.
01:10:55.501 : :Keys to a Plot.
01:14:41.226 : :Time for a Price.
01:18:36.503 : :A Perfect Fit.
01:22:09.424 : :For Emiliy's Protection.
01:28:31.472 : :Taking Care of Business.
01:31:09.338 : :Strangers on a Train.
01:35:01.696 : :Welcome Home.
01:38:56.096 : :Didn't Plan on That.
01:40:49.043 : :Working It Out.
01:42:20.300 : :Parting Shots.
01:43:22.696 : :The Truth.
01:44:29.012 : :End Credits
01:47:26.231 : :
Скриншоты:
/// Отреставрируем и восстановим всем Клубом! ///

Все одноименные релизы в Клубе

Время раздачи: С 09:00 до 24:00
[NNM-Club.ru]_Idealnoe.ubijstvo.1998.(x264).BDRip.mkv.torrent
 Торрент: Платиновая раздача  Зарегистрирован
 
Скачать


Примагнититься
 Зарегистрирован:   22 Окт 2012 14:35:41
 Размер:   3,63 GB  (
 Рейтинг:   4,8 (Голосов: 62)
 Поблагодарили:   251
 Проверка:   Оформление проверено модератором 22 Окт 2012 18:06:11
Как cкачать  ·  Как раздать  ·  Правильно оформить  ·  Поднять ратио!  
nibrizhan
Стаж: 9 лет 2 мес.
Сообщений: 8
Ratio: 1,013
100%
russia.gif
Фильм классный
трезорыч
Стаж: 7 лет 6 мес.
Сообщений: 2713
Ratio: 75,317
100%
Откуда: Из Интернета
russia.gif
Интересный триллер ! Рекомендую !
Белтон
Стаж: 9 лет 7 мес.
Сообщений: 115
Ratio: 2,133
Поблагодарили: 1465
17.15%
Откуда: берутся дети?
ussr.gif
И где "Скриншоты" ??

_________________
А сапоги над головой не свистели?
monkdt
Только чтение
Стаж: 8 мес. 8 дней
Сообщений: 761
Ratio: 0,959
100%
germany.gif
в этом фильме пелтроу?? Совсем не помню, надо срочно качать
allerc
Стаж: 8 лет 8 мес.
Сообщений: 25
Ratio: 3,228
2.82%
Был еще совковый фильм "Ошибка Тони Вендиса" с аналогичным сюжетом, И.Костолевский в главной роли.
Показать сообщения:   
Начать новую тему   Ответить на тему    Торрент-трекер NNM-Club -> Зарубежное кино -> Зарубежные Фильмы (HD*Rip/LQ, DVDRip, SATRip, VHSRip) Часовой пояс: GMT + 3
Страница 1 из 1