Классический форум-трекер
canvas not supported
Нас вместе: 4 094 045

Спаун / Spawn (1997) BDRip [H.264] [Director's cut]


 
 
RSS
Начать новую тему   Ответить на тему    Торрент-трекер NNM-Club -> Зарубежное кино -> Зарубежные Фильмы (HD*Rip/LQ, DVDRip, SATRip, VHSRip)
Автор Сообщение
охрана ®
RG Releasers
 
Стаж: 9 лет
Сообщений: 3621
Ratio: 3994,242
Поблагодарили: 502385
100%
Откуда: СССР
ussr.gif
Спаун / Spawn (1997) BDRip [H.264]
«Рождённый в темноте, осужденный на справедливость»

Год выпуска: 1997
Жанр: Ужасы, Фэнтези, Боевик
Производство: США / New Line Cinema, Pull Down Your Pants Pictures, Todd McFarlane Entertainment

Описание фильма:
«Краповый берет» Эл Симмонс убит своим начальником во время выполнения очередной миссии. Попав в чистилище, он заключает сделку с Дьяволом. Сатана дает ему силу, доспехи и оружие.
В обмен на то, чтобы еще раз увидеть свою жену, Симмонс должен предварить приход сил Зла на Землю. Оказавшись на свободе, он разрывает контракт в одностороннем порядке…

Режиссер: Марк А.З. Диппе
Сценарий: Алан Б. МакЭлрой, Тодд МакФарлэйн, Марк А.З. Диппе
Продюсер: Алан С. Бломквист, Клинт Голдман, Тодд МакФарлэйн
Актеры: Майкл Джей Уайт, Джон Легуизамо, Мартин Шин, Тереза Рэндл, Никол Уильямсон, Д.Б. Суини, Мелинда Кларк, Мико Хьюз, Сидни Бодуан, Майкл Пападжон

Продолжительность: 01:38:33
Качество видео: BDRip
Перевод: Многоголосый закадровый, «Киномания»



Дата мировой премьеры: 1 августа 1997
Дата выхода DVD релиза: 24 декабря 2007, «Союз-Видео»

Видеокодек: MPEG-4 AVC/H.264
Битрейт видео: ~1918 Кбит/сек
Размер кадра: 1024x576
Аудиокодек: AC3 2.0
Битрейт аудио: 192 Кбит/сек
Передавай привет своему боссу, он будет следующим
Фильм Спаун был очень популярным в 90-е года 20 века, но я про него только раньше слышал, и не видел что это за кино. Сейчас после просмотра могу констатировать, что фильм просто потрясающий, в нём всё выглядит великолепно: сюжет, актёры, спецэффекты и музыка.
Вообще в 90-е не так уж много было фильмов снятых про комиксам, в основном по комиксам стали снимать уже в начале 21 века, для 1997 года фильм кажется если не шедевром, то весьма очень качественно сделанным продуктом.
По сюжету нам рассказывается про одного парня Эл Симмонса, которого убивают, и он отправляется в ад, и заключает сделку с сатаной, и теперь он не только будет мстить тем кто его убил, но он ещё и покажет сатане где его место.
Хотелось особенно отметить Майкла Джея Уайта у которого помимо этого фильма очень много отличных работ, ну и конечно Джона Легуизамо, который просто шикарен был в образе Клоуна, вообще его персонаж был самым забавным в фильме, весь юмор как и положено исходит от клоуна. Мне очень понравился главный герой Спаун, который привлёк меня тем, что был одержим местью и очень любил свою жену Вангу, помимо всего прочего мне очень понравились его доспехи и его костюм смотрелось очень классно, и отмечу также его сражения как с самим клоуном, так и с другими героями, но всё-таки битвы с клоуном, который превращался в гигантского ящера на мой взгляд были самыми лучшими в фильме.
Хочу отметить и музыку, которая получилось очень таинственной и такой зловещей я бы её назвал очень была в тему.
Что касается спецэффектов, то они выглядели вообще шикарно, на мой взгляд они сильно были сделаны в своё время.
На мой взгляд фильм сильно недооценили в своё время, потому что со всех сторон- это потрясающий фильм, я не особый любитель всяких там демонов, и фильмов про ад, но смотрелось просто потрясающе.
Думаю главная заслуга всё-таки не в спецэффектах, а в двух главных героях — Спауне и Клоуне.
10 из 10
Сатурн, 1998 год
Номинации (1):
Лучший грим
General
Unique ID : 195197003399348867542670909841923346877 (0x92D9934CC4C4D2538AF45604E5BF91BD)
Complete name : F:\Downloads\Спаун.mkv
Format : Matroska
Format version : Version 4 / Version 2
File size : 1.45 GiB
Duration : 1h 38mn
Overall bit rate : 2 112 Kbps
Encoded date : UTC 2014-05-08 23:11:32
Writing application : mkvmerge v6.4.1 ('Omega Point') built on Sep 16 2013 22:05:10
Writing library : libebml v1.3.0 + libmatroska v1.4.1

Video
ID : 1
Format : AVC
Format/Info : Advanced Video Codec
Format profile : High@L4.1
Format settings, CABAC : Yes
Format settings, ReFrames : 8 frames
Codec ID : V_MPEG4/ISO/AVC
Duration : 1h 38mn
Bit rate : 1 918 Kbps
Width : 1 024 pixels
Height : 576 pixels
Display aspect ratio : 16:9
Frame rate mode : Constant
Frame rate : 23.976 fps
Color space : YUV
Chroma subsampling : 4:2:0
Bit depth : 8 bits
Scan type : Progressive
Bits/(Pixel*Frame) : 0.136
Stream size : 1.29 GiB (89%)
Title : Spawn
Writing library : x264 core 130 r2273 b3065e6
Encoding settings : cabac=1 / ref=8 / deblock=1:0:0 / analyse=0x3:0x133 / me=umh / subme=9 / psy=1 / psy_rd=1.00:0.00 / mixed_ref=1 / me_range=32 / chroma_me=1 / trellis=2 / 8x8dct=1 / cqm=0 / deadzone=21,11 / fast_pskip=0 / chroma_qp_offset=-2 / threads=6 / lookahead_threads=1 / sliced_threads=0 / nr=0 / decimate=1 / interlaced=0 / bluray_compat=0 / constrained_intra=0 / bframes=3 / b_pyramid=2 / b_adapt=2 / b_bias=0 / direct=3 / weightb=1 / open_gop=0 / weightp=2 / keyint=250 / keyint_min=25 / scenecut=40 / intra_refresh=0 / rc_lookahead=60 / rc=2pass / mbtree=1 / bitrate=1918 / ratetol=1.0 / qcomp=0.60 / qpmin=10 / qpmax=51 / qpstep=4 / cplxblur=20.0 / qblur=0.5 / ip_ratio=1.40 / aq=1:1.00
Language : English
Default : Yes
Forced : No

Audio
ID : 2
Format : AC-3
Format/Info : Audio Coding 3
Mode extension : CM (complete main)
Format settings, Endianness : Big
Codec ID : A_AC3
Duration : 1h 38mn
Bit rate mode : Constant
Bit rate : 192 Kbps
Channel(s) : 2 channels
Channel positions : Front: L R
Sampling rate : 48.0 KHz
Bit depth : 16 bits
Compression mode : Lossy
Stream size : 135 MiB (9%)
Title : Многоголосый закадровый, «Киномания»
Language : Russian
Default : Yes
Forced : No
Скриншоты:



Время раздачи: с 13:00 до 01:00 по Москве (выходные круглосуточно), до 10 скачавших
[NNM-Club.me]_Spaun.mkv.torrent
 Торрент: Платиновая раздача  Зарегистрирован
 
Скачать


Примагнититься
 Зарегистрирован:   09 Май 2014 04:04:36
 Размер:   1,45 GB  (
 Рейтинг:   4,8 (Голосов: 145)
 Поблагодарили:   440
 Проверка:   Оформление проверено модератором 09 Май 2014 06:30:51
Как cкачать  ·  Как раздать  ·  Правильно оформить  ·  Поднять ратио!  
Caustique

Online
Стаж: 13 лет 1 мес.
Сообщений: 739
Ratio: 18,17
Раздал: 46,54 TB
100%
albania.gif
Мульт, конечно, интереснее. Но в целом фильм для своих лет очень даже неплохой, я мелким засмотрел до дыр его, на видеокассете ещё :)

_________________
Vita sine libertate, nihil!
muhaaaaa
Стаж: 6 лет 7 мес.
Сообщений: 551
Ratio: 12,271
1.65%
хороший фильм!
sssuslik
Стаж: 8 лет 4 мес.
Сообщений: 9
Ratio: 7,148
6.98%
Помним помним, до сих пор где то видеокассета с ним лежит. Отличный фильм :)
Docentsid
Стаж: 10 лет 4 мес.
Сообщений: 249
Ratio: 28,856
100%
ussr.gif
Супер качество для этого старенького шедевра спс.
кому интересно вот ссылка на понравившийся вами ранее перевод.
*** большой выбор.
 !  Примечание от MAG3131:
Всем участникам форума запрещается: 2.11. Ссылаться на другие ресурсы сети, особенно, если существует раздача на данном форуме (исключениями могут являться ссылки на дополнительную информацию, домашнюю страницу автора или описание программы/фильма, семплы).
strenioff2
Стаж: 9 лет 5 мес.
Сообщений: 39
Ratio: 14,746
100%
russia.gif
Цитата:

«Краповый берет» Эл Симмонс

я думал Краповые береты только в России бывают...

_________________
Жизнь надо прожить так, чтобы боги в восторге предложили ещё одну...
lordtin
Стаж: 10 лет 4 мес.
Сообщений: 141
Ratio: 2,11
Поблагодарили: 25
100%
russia.gif
Да, фильм прикольный на то время был))) Спасибо за раздачу)
Stan79

Online
Стаж: 10 лет 5 мес.
Сообщений: 358
Ratio: 20,354
Поблагодарили: 1004
100%
russia.gif
Тут только один саундтрек чего стоит!
трезорыч
Стаж: 7 лет 6 мес.
Сообщений: 2713
Ratio: 75,317
100%
Откуда: Из Интернета
russia.gif
Фильм не плох а для того времени вообще класс !
kalvis
Стаж: 10 лет 1 мес.
Сообщений: 138
Ratio: 0,967
96.67%
Фильм для тех кто любит эфекты. Мне не понравился. Я просто после пол часа удолил. Чёрт изображон как полный полный. Шутки и манера общения - жуть. :нет:
СтеклышеК
DJ Настроения
 
Стаж: 9 лет 8 мес.
Сообщений: 1330
Ratio: 72,065
Раздал: 7,352 TB
Поблагодарили: 1741
100%
Откуда: с Вологодской губернии
ussr.gif
Участник 214й игры Абсолюта NNM-Club

_________________

214я игра завершена! Поздравляем победителя!
Андрей600
Стаж: 8 лет 8 мес.
Сообщений: 407
Ratio: 22,003
Раздал: 33,91 TB
100%
Откуда: Папуа - Новая Гвинея
russia.gif
sssuslik писал(а): Перейти к сообщению
Помним помним, до сих пор где то видеокассета с ним лежит. Отличный фильм :)

А у меня знакомый взял посмотреть и до сих пор не вернул! А я то помню!)))
belgorodbrat
Стаж: 8 лет 9 мес.
Сообщений: 31
Ratio: 2,693
4.04%
качество норм, перевод ужасен(
Показать сообщения:   
Начать новую тему   Ответить на тему    Торрент-трекер NNM-Club -> Зарубежное кино -> Зарубежные Фильмы (HD*Rip/LQ, DVDRip, SATRip, VHSRip) Часовой пояс: GMT + 3
Страница 1 из 1