Классический форум-трекер
canvas not supported
Нас вместе: 4 093 741

Из темноты / Out of the Dark (2014) WEB-DLRip


Страницы:   Пред.  1, 2 
 
RSS
Начать новую тему   Ответить на тему    Торрент-трекер NNM-Club -> Зарубежное кино -> Зарубежные Фильмы (HD*Rip/LQ, DVDRip, SATRip, VHSRip)
Автор Сообщение
Dmitry_Holiness ®
Стаж: 8 лет 3 мес.
Сообщений: 169
Ratio: 14,257
Поблагодарили: 13572
100%
russia.gif
Из темноты / Out of the Dark (2014) WEB-DLRip
Производство: США, Колумбия, Испания
Жанр: Триллер, Ужасы

Режиссер: Йуис Килес
Продюсер: Кристиан Конти, Энрике Лопес Лавинье, Белен Атьенса,
Актеры: Пикси Дейвис, Алехандро Ферт, Стивен Ри, Скотт Спидман, Джулия Стайлз, Гильермо Моралес Витола

Описание фильма:
Пара со своей дочерью переезжают в Колумбию, чтобы заняться делами их семейного обрабатывающего предприятия, но скоро они узнают, что их новый дом населен привидениями…

Перевод: Двуголосый закадровый, любительский
Озвучка / Автор перевода: DeadSno & den904
Субтитры: Отсутствуют



Дата мировой премьеры: 27 августа 2014

Продолжительность: 01:33:46
Качество видео: WEB-DLRip

Видеокодек: Xvid
Битрейт видео: 1793 kb/s
Размер кадра: 720x304
Аудиокодек: AC3,(6 ch)
Битрейт аудио: 384 kb/s
Сэмпл: Скачать
Код:

General
Complete name                            : C:\Фильмы\Out.of.the.Dark.2014.L2.WEB-DLRip.avi
Format                                   : AVI
Format/Info                              : Audio Video Interleave
File size                                : 1.43 GiB
Duration                                 : 1h 33mn
Overall bit rate                         : 2 187 Kbps

Video
ID                                       : 0
Format                                   : MPEG-4 Visual
Format profile                           : Advanced Simple@L5
Format settings, BVOP                    : 2
Format settings, QPel                    : No
Format settings, GMC                     : No warppoints
Format settings, Matrix                  : Default (H.263)
Codec ID                                 : XVID
Codec ID/Hint                            : XviD
Duration                                 : 1h 33mn
Bit rate                                 : 1 794 Kbps
Width                                    : 720 pixels
Height                                   : 304 pixels
Display aspect ratio                     : 2.35:1
Frame rate                               : 23.976 fps
Color space                              : YUV
Chroma subsampling                       : 4:2:0
Bit depth                                : 8 bits
Scan type                                : Progressive
Compression mode                         : Lossy
Bits/(Pixel*Frame)                       : 0.342
Stream size                              : 1.17 GiB (82%)
Writing library                          : XviD 64

Audio
ID                                       : 1
Format                                   : AC-3
Format/Info                              : Audio Coding 3
Mode extension                           : CM (complete main)
Format settings, Endianness              : Big
Codec ID                                 : 2000
Duration                                 : 1h 33mn
Bit rate mode                            : Constant
Bit rate                                 : 384 Kbps
Channel(s)                               : 6 channels
Channel positions                        : Front: L C R, Side: L R, LFE
Sampling rate                            : 48.0 KHz
Bit depth                                : 16 bits
Compression mode                         : Lossy
Stream size                              : 258 MiB (18%)
Alignment                                : Split accross interleaves
Interleave, duration                     : 42 ms (1.00 video frame)
Interleave, preload duration             : 500 ms
Скриншоты:


09.00 до 15.00 и с 20:00 до 24:00.
[NNM-Club.me]_Out.of.the.Dark.2014.L2.WEB-DLRip.avi.torrent
 Торрент: Платиновая раздача  Зарегистрирован
 
Скачать


Примагнититься
 Зарегистрирован:   16 Янв 2015 20:15:42
 Размер:   1,43 GB  (
 Рейтинг:   4,4 (Голосов: 81)
 Поблагодарили:   418
 Проверка:   Оформление проверено модератором 16 Янв 2015 22:36:25
Как cкачать  ·  Как раздать  ·  Правильно оформить  ·  Поднять ратио!  
Gerber A
Стаж: 7 лет 8 мес.
Сообщений: 191
Ratio: 8,703
100%
ussr.gif
pesnjar писал(а): Перейти к сообщению

Фильм хорош для своего жанра. Рейтинг занижен. Любителям мистических ужасов к просмотру 1 раз обязателен.


Благодарю за дельный комментарий!

_________________
Безвозмездно — то есть даром
hsa1973
Стаж: 6 лет 9 мес.
Сообщений: 27
Ratio: 3,063
3.74%
yn_nemiroff писал(а): Перейти к сообщению
CAINE66 писал(а): Перейти к сообщению
kartvladek :D
А какой под DOS torrent-клиент? :шок:

16 битный клиент :D

там вообще то 8 битный проц z80
Сергей Ежов
Стаж: 8 лет 10 мес.
Сообщений: 891
Ratio: 55,3
Раздал: 105,4 TB
100%
Откуда: Вольск
russia.gif
pesnjar писал(а): Перейти к сообщению
Просто впечатляет уровень интеллекта и знаний о Колумбии некоторых комментаторов здесь. А что вы удивляетесь, когда за бугром думают, что тут у каждого в кармане бутылка водки и балалайка еще в сумке?!
Фильм хорош для своего жанра. Рейтинг занижен. Любителям мистических ужасов к просмотру 1 раз обязателен.


...ну тогда забираем :да:

_________________
Наше от нас не уйдёт. То, что ушло - было не наше
ALEXEI_76
Стаж: 11 лет 8 мес.
Сообщений: 94
Ratio: 4,53
Поблагодарили: 58
0%
russia.gif
pesnjar писал(а): Перейти к сообщению
Просто впечатляет уровень интеллекта и знаний о Колумбии некоторых комментаторов здесь. А что вы удивляетесь, когда за бугром думают, что тут у каждого в кармане бутылка водки и балалайка еще в сумке?!
Фильм хорош для своего жанра. Рейтинг занижен. Любителям мистических ужасов к просмотру 1 раз обязателен.

Ох,еп, здесь ценитель колумбийской культуры вылез и трясет своим двенадцатисантиметровым IQ
abozoff
Стаж: 9 лет 9 мес.
Сообщений: 174
Ratio: 9,57
Раздал: 22 TB
100%
albania.gif
ALEXEI_76 писал(а): Перейти к сообщению

Ох,еп, здесь ценитель колумбийской культуры вылез и трясет своим двенадцатисантиметровым IQ

Измеряли лично? Ахтунг детектед.

_________________
все слетело. чистый винт - чистая совесть
izy72
 
Стаж: 12 лет 4 мес.
Сообщений: 16
Ratio: 2,105
100%
russia.gif
Не только водка и балалайка, медведь на каждой улице танцует! На особо больших улицах и два медведя и даже три! И если в Америке говорят Русская водка, да и в других странах тоже. То про Колумбию вспоминают не в связи картохой, уж будьте уверены.))))
Так подскажите что там с бизнесом и урожаем? Духи с нюхали?

_________________
Рио де Жанейро
Fedor160
Стаж: 8 лет 6 мес.
Сообщений: 6
Ratio: 74,499
100%
russia.gif
И медведь на цепочке :смех:
Ole.g
Стаж: 10 лет 3 мес.
Сообщений: 15
Ratio: 7,517
0%
Фильм-то как?  ?
boogor
Стаж: 9 лет 11 мес.
Сообщений: 57
Ratio: 0,829
2.67%
в колумбии обрабатывающие предприятия только кокаин обрабатывают, а под ним не только приведения мерещатся....
ALEXEI_76
Стаж: 11 лет 8 мес.
Сообщений: 94
Ratio: 4,53
Поблагодарили: 58
0%
russia.gif
abozoff писал(а): Перейти к сообщению
ALEXEI_76 писал(а): Перейти к сообщению

Ох,еп, здесь ценитель колумбийской культуры вылез и трясет своим двенадцатисантиметровым IQ

Измеряли лично? Ахтунг детектед.

А за ним и ахтунгдетектер-извращенец 80 lvl подтянулся :лол:
sokol193
Стаж: 9 лет 5 мес.
Сообщений: 1108
Ratio: 1,354
Раздал: 1,308 TB
100%
Дребедень, конечно, но на один просмотр сойдёт...
pesnjar
Стаж: 9 лет 9 мес.
Сообщений: 318
Ratio: 2,035
100%
izy72 писал(а): Перейти к сообщению
Не только водка и балалайка, медведь на каждой улице танцует! На особо больших улицах и два медведя и даже три! И если в Америке говорят Русская водка, да и в других странах тоже. То про Колумбию вспоминают не в связи картохой, уж будьте уверены.))))
Так подскажите что там с бизнесом и урожаем? Духи с нюхали?
А за щеку возьмешь?
Показать сообщения:   
Начать новую тему   Ответить на тему    Торрент-трекер NNM-Club -> Зарубежное кино -> Зарубежные Фильмы (HD*Rip/LQ, DVDRip, SATRip, VHSRip) Часовой пояс: GMT + 3
Страницы:   Пред.  1, 2
Страница 2 из 2