Классический форум-трекер
canvas not supported
Нас вместе: 4 166 222

Ария - Ночь короче дня (1995) [ALAC|Tracks]<Heavy Metal>


 
 
RSS
Начать новую тему   Ответить на тему    Торрент-трекер NNM-Club -> Аудио и Видео -> Музыка Lossless (ALAC)
Автор Сообщение
Cecidit ®
Стаж: 7 лет 8 мес.
Сообщений: 129
Ratio: 39.772
Поблагодарили: 8806
100%
Откуда: Москва, МО Щелково
russia.gif
Ария - Ночь короче дня (1995)
Год: 1995
Жанр: Heavy Metal
Продолжительность: 00:45:05

Кодек: ALAC
Битрейт: Lossless
Тип раздачи: Tracks
Обложки: Вшиты
Кодирование: XLD + QuickTime + iTunes

«Ночь короче дня»
 — шестой студийный альбом группы Ария.
Альбом был записан после длительного раскола в группе, в результате которого Сергей Маврин и Валерий Кипелов покинули её состав. Ария начала запись с гитаристом Сергеем Терентьевым и вокалистом Алексеем Булгаковым (Легион), треки с вокалом Булгакова сохранились в качестве раритетов. Однако продюсеров Moroz Records не устроил голос Булгакова, и с помощью их посредничества удалось убедить Валерия Кипелова вернуться в группу и записать альбом. Несмотря на отсутствие Сергея Маврина в качестве гитариста, он был соавтором одной из песен, «Возьми моё сердце», а также записал несколько гитарных партий.

Состав:

Валерий Кипелов — вокал
Владимир Холстинин — гитара
Сергей Терентьев — гитара
Виталий Дубинин — бас
Александр Манякин — барабаны
Сергей Маврин — ритм-гитара, ак.гитара(3,6)
Александр Мясников - клавишные

Треклист:
01. Рабство Иллюзий
02. Паранойя
03. Ангельская Пыль
04. Уходи, И Не Возвращайся!
05. Король Дороги
06. Возьми Моё Сердце
07. Зверь
08. Дух Войны
09. Ночь Короче Дня
Код: выделить все

Общее
Полное имя                               : /Users/Denis/Library/Containers/net.mediaarea.mediainfo.mac/Data/Music/iTunes/iTunes Media/Music/Ария/Ночь короче дня/01 Рабство иллюзий.m4a
Формат                                   : MPEG-4
Профиль формата                          : Apple audio with iTunes info
Идентификатор кодека                     : M4A
Размер файла                             : 42,5 Мбайт
Продолжительность                        : 5 м. 51 с.
Режим общего битрейта                    : Переменный
Общий поток                              : 1015 Кбит/сек
Альбом                                   : Ночь короче дня
Альбом/Исполнитель                       : Ария
Трек                                     : Рабство иллюзий
Трек/Положение                           : 1
Трек/Всего                               : 9
Исполнитель                              : Ария
Жанр                                     : Heavy Metal
Дата записи                              : 1995
Дата кодирования                         : UTC 1994-01-20 03:36:47
Дата пометки                             : UTC 2014-05-29 08:36:02
Программа кодирования                    : X Lossless Decoder 20140504, QuickTime 7.7.1
Обложка                                  : Yes
Примечание                               : ExactAudioCopy v0.99pb3
iTunes_CDDB_1                            : 6A0A9109+203062+9+150+26507+48992+76045+93387+112700+131175+148032+170445
iTunes_CDDB_TrackNumber                  : 1

Аудио
Идентификатор                            : 1
Формат                                   : ALAC
Идентификатор кодека                     : alac
Идентификатор кодека/Информация          : Apple Lossless Audio Codec
Продолжительность                        : 5 м. 51 с.
Duration_LastFrame                       : -31 мс.
Вид битрейта                             : Переменный
Битрейт                                  : 1001 Кбит/сек
Каналы                                   : 2 канала
Частота                                  : 44,1 КГц
Битовая глубина                          : 16 бит
Размер потока                            : 41,9 Мбайт (99%)
Язык                                     : English
Дата кодирования                         : UTC 1994-01-20 03:36:47
Дата пометки                             : UTC 2014-05-29 08:36:02

Общее
Полное имя                               : /Users/Denis/Library/Containers/net.mediaarea.mediainfo.mac/Data/Music/iTunes/iTunes Media/Music/Ария/Ночь короче дня/02 Паранойя.m4a
Формат                                   : MPEG-4
Профиль формата                          : Apple audio with iTunes info
Идентификатор кодека                     : M4A
Размер файла                             : 35,2 Мбайт
Продолжительность                        : 4 м. 59 с.
Режим общего битрейта                    : Переменный
Общий поток                              : 984 Кбит/сек
Альбом                                   : Ночь короче дня
Альбом/Исполнитель                       : Ария
Трек                                     : Паранойя
Трек/Положение                           : 2
Трек/Всего                               : 9
Исполнитель                              : Ария
Жанр                                     : Heavy Metal
Дата записи                              : 1995
Дата кодирования                         : UTC 1990-11-12 01:35:11
Дата пометки                             : UTC 2014-05-29 08:36:06
Программа кодирования                    : X Lossless Decoder 20140504, QuickTime 7.7.1
Обложка                                  : Yes
Примечание                               : ExactAudioCopy v0.99pb3
iTunes_CDDB_1                            : 6A0A9109+203062+9+150+26507+48992+76045+93387+112700+131175+148032+170445
iTunes_CDDB_TrackNumber                  : 2

Аудио
Идентификатор                            : 1
Формат                                   : ALAC
Идентификатор кодека                     : alac
Идентификатор кодека/Информация          : Apple Lossless Audio Codec
Продолжительность                        : 4 м. 59 с.
Duration_LastFrame                       : -16 мс.
Вид битрейта                             : Переменный
Битрейт                                  : 968 Кбит/сек
Каналы                                   : 2 канала
Частота                                  : 44,1 КГц
Битовая глубина                          : 16 бит
Размер потока                            : 34,6 Мбайт (98%)
Язык                                     : English
Дата кодирования                         : UTC 1990-11-12 01:35:11
Дата пометки                             : UTC 2014-05-29 08:36:06

Общее
Полное имя                               : /Users/Denis/Library/Containers/net.mediaarea.mediainfo.mac/Data/Music/iTunes/iTunes Media/Music/Ария/Ночь короче дня/03 Ангельская пыль.m4a
Формат                                   : MPEG-4
Профиль формата                          : Apple audio with iTunes info
Идентификатор кодека                     : M4A
Размер файла                             : 42,2 Мбайт
Продолжительность                        : 6 м. 0 с.
Режим общего битрейта                    : Переменный
Общий поток                              : 980 Кбит/сек
Альбом                                   : Ночь короче дня
Альбом/Исполнитель                       : Ария
Трек                                     : Ангельская пыль
Трек/Положение                           : 3
Трек/Всего                               : 9
Исполнитель                              : Ария
Жанр                                     : Heavy Metal
Дата записи                              : 1995
Дата кодирования                         : UTC 2010-01-01 13:44:47
Дата пометки                             : UTC 2014-05-29 08:36:09
Программа кодирования                    : X Lossless Decoder 20140504, QuickTime 7.7.1
Обложка                                  : Yes
Примечание                               : ExactAudioCopy v0.99pb3
iTunes_CDDB_1                            : 6A0A9109+203062+9+150+26507+48992+76045+93387+112700+131175+148032+170445
iTunes_CDDB_TrackNumber                  : 3

Аудио
Идентификатор                            : 1
Формат                                   : ALAC
Идентификатор кодека                     : alac
Идентификатор кодека/Информация          : Apple Lossless Audio Codec
Продолжительность                        : 6 м. 0 с.
Duration_LastFrame                       : -39 мс.
Вид битрейта                             : Переменный
Битрейт                                  : 967 Кбит/сек
Каналы                                   : 2 канала
Частота                                  : 44,1 КГц
Битовая глубина                          : 16 бит
Размер потока                            : 41,6 Мбайт (99%)
Язык                                     : English
Дата кодирования                         : UTC 2010-01-01 13:44:47
Дата пометки                             : UTC 2014-05-29 08:36:09

Общее
Полное имя                               : /Users/Denis/Library/Containers/net.mediaarea.mediainfo.mac/Data/Music/iTunes/iTunes Media/Music/Ария/Ночь короче дня/04 Уходи, и не возвращайся.m4a
Формат                                   : MPEG-4
Профиль формата                          : Apple audio with iTunes info
Идентификатор кодека                     : M4A
Размер файла                             : 27,5 Мбайт
Продолжительность                        : 3 м. 51 с.
Режим общего битрейта                    : Переменный
Общий поток                              : 999 Кбит/сек
Альбом                                   : Ночь короче дня
Альбом/Исполнитель                       : Ария
Трек                                     : Уходи, и не возвращайся
Трек/Положение                           : 4
Трек/Всего                               : 9
Исполнитель                              : Ария
Жанр                                     : Heavy Metal
Дата записи                              : 1995
Дата кодирования                         : UTC 2006-10-24 11:43:11
Дата пометки                             : UTC 2014-05-29 08:36:12
Программа кодирования                    : X Lossless Decoder 20140504, QuickTime 7.7.1
Обложка                                  : Yes
Примечание                               : ExactAudioCopy v0.99pb3
iTunes_CDDB_1                            : 6A0A9109+203062+9+150+26507+48992+76045+93387+112700+131175+148032+170445
iTunes_CDDB_TrackNumber                  : 4

Аудио
Идентификатор                            : 1
Формат                                   : ALAC
Идентификатор кодека                     : alac
Идентификатор кодека/Информация          : Apple Lossless Audio Codec
Продолжительность                        : 3 м. 51 с.
Duration_LastFrame                       : -44 мс.
Вид битрейта                             : Переменный
Битрейт                                  : 979 Кбит/сек
Каналы                                   : 2 канала
Частота                                  : 44,1 КГц
Битовая глубина                          : 16 бит
Размер потока                            : 27,0 Мбайт (98%)
Язык                                     : English
Дата кодирования                         : UTC 2006-10-24 11:43:11
Дата пометки                             : UTC 2014-05-29 08:36:12

Общее
Полное имя                               : /Users/Denis/Library/Containers/net.mediaarea.mediainfo.mac/Data/Music/iTunes/iTunes Media/Music/Ария/Ночь короче дня/05 Король дороги.m4a
Формат                                   : MPEG-4
Профиль формата                          : Apple audio with iTunes info
Идентификатор кодека                     : M4A
Размер файла                             : 31,5 Мбайт
Продолжительность                        : 4 м. 17 с.
Режим общего битрейта                    : Переменный
Общий поток                              : 1026 Кбит/сек
Альбом                                   : Ночь короче дня
Альбом/Исполнитель                       : Ария
Трек                                     : Король дороги
Трек/Положение                           : 5
Трек/Всего                               : 9
Исполнитель                              : Ария
Жанр                                     : Heavy Metal
Дата записи                              : 1995
Дата кодирования                         : UTC 2020-08-20 04:30:07
Дата пометки                             : UTC 2014-05-29 08:36:15
Программа кодирования                    : X Lossless Decoder 20140504, QuickTime 7.7.1
Обложка                                  : Yes
Примечание                               : ExactAudioCopy v0.99pb3
iTunes_CDDB_1                            : 6A0A9109+203062+9+150+26507+48992+76045+93387+112700+131175+148032+170445
iTunes_CDDB_TrackNumber                  : 5

Аудио
Идентификатор                            : 1
Формат                                   : ALAC
Идентификатор кодека                     : alac
Идентификатор кодека/Информация          : Apple Lossless Audio Codec
Продолжительность                        : 4 м. 17 с.
Duration_LastFrame                       : -49 мс.
Вид битрейта                             : Переменный
Битрейт                                  : 1008 Кбит/сек
Каналы                                   : 2 канала
Частота                                  : 44,1 КГц
Битовая глубина                          : 16 бит
Размер потока                            : 31,0 Мбайт (98%)
Язык                                     : English
Дата кодирования                         : UTC 2020-08-20 04:30:07
Дата пометки                             : UTC 2014-05-29 08:36:15

Общее
Полное имя                               : /Users/Denis/Library/Containers/net.mediaarea.mediainfo.mac/Data/Music/iTunes/iTunes Media/Music/Ария/Ночь короче дня/06 Возьми моё сердце.m4a
Формат                                   : MPEG-4
Профиль формата                          : Apple audio with iTunes info
Идентификатор кодека                     : M4A
Размер файла                             : 28,9 Мбайт
Продолжительность                        : 4 м. 6 с.
Режим общего битрейта                    : Переменный
Общий поток                              : 983 Кбит/сек
Альбом                                   : Ночь короче дня
Альбом/Исполнитель                       : Ария
Трек                                     : Возьми моё сердце
Трек/Положение                           : 6
Трек/Всего                               : 9
Исполнитель                              : Ария
Жанр                                     : Heavy Metal
Дата записи                              : 1995
Дата кодирования                         : UTC 2023-10-29 06:31:43
Дата пометки                             : UTC 2014-05-29 08:36:17
Программа кодирования                    : X Lossless Decoder 20140504, QuickTime 7.7.1
Обложка                                  : Yes
Примечание                               : ExactAudioCopy v0.99pb3
iTunes_CDDB_1                            : 6A0A9109+203062+9+150+26507+48992+76045+93387+112700+131175+148032+170445
iTunes_CDDB_TrackNumber                  : 6

Аудио
Идентификатор                            : 1
Формат                                   : ALAC
Идентификатор кодека                     : alac
Идентификатор кодека/Информация          : Apple Lossless Audio Codec
Продолжительность                        : 4 м. 6 с.
Duration_LastFrame                       : -77 мс.
Вид битрейта                             : Переменный
Битрейт                                  : 964 Кбит/сек
Каналы                                   : 2 канала
Частота                                  : 44,1 КГц
Битовая глубина                          : 16 бит
Размер потока                            : 28,3 Мбайт (98%)
Язык                                     : English
Дата кодирования                         : UTC 2023-10-29 06:31:43
Дата пометки                             : UTC 2014-05-29 08:36:17

Общее
Полное имя                               : /Users/Denis/Library/Containers/net.mediaarea.mediainfo.mac/Data/Music/iTunes/iTunes Media/Music/Ария/Ночь короче дня/07 Зверь.m4a
Формат                                   : MPEG-4
Профиль формата                          : Apple audio with iTunes info
Идентификатор кодека                     : M4A
Размер файла                             : 27,4 Мбайт
Продолжительность                        : 3 м. 44 с.
Режим общего битрейта                    : Переменный
Общий поток                              : 1023 Кбит/сек
Альбом                                   : Ночь короче дня
Альбом/Исполнитель                       : Ария
Трек                                     : Зверь
Трек/Положение                           : 7
Трек/Всего                               : 9
Исполнитель                              : Ария
Жанр                                     : Heavy Metal
Дата записи                              : 1995
Дата кодирования                         : UTC 2032-11-11 08:16:15
Дата пометки                             : UTC 2014-05-29 08:36:19
Программа кодирования                    : X Lossless Decoder 20140504, QuickTime 7.7.1
Обложка                                  : Yes
Примечание                               : ExactAudioCopy v0.99pb3
iTunes_CDDB_1                            : 6A0A9109+203062+9+150+26507+48992+76045+93387+112700+131175+148032+170445
iTunes_CDDB_TrackNumber                  : 7

Аудио
Идентификатор                            : 1
Формат                                   : ALAC
Идентификатор кодека                     : alac
Идентификатор кодека/Информация          : Apple Lossless Audio Codec
Продолжительность                        : 3 м. 44 с.
Duration_LastFrame                       : -9 мс.
Вид битрейта                             : Переменный
Битрейт                                  : 1002 Кбит/сек
Каналы                                   : 2 канала
Частота                                  : 44,1 КГц
Битовая глубина                          : 16 бит
Размер потока                            : 26,9 Мбайт (98%)
Язык                                     : English
Дата кодирования                         : UTC 2032-11-11 08:16:15
Дата пометки                             : UTC 2014-05-29 08:36:19

Общее
Полное имя                               : /Users/Denis/Library/Containers/net.mediaarea.mediainfo.mac/Data/Music/iTunes/iTunes Media/Music/Ария/Ночь короче дня/08 Дух войны.m4a
Формат                                   : MPEG-4
Профиль формата                          : Apple audio with iTunes info
Идентификатор кодека                     : M4A
Размер файла                             : 36,5 Мбайт
Продолжительность                        : 4 м. 58 с.
Режим общего битрейта                    : Переменный
Общий поток                              : 1025 Кбит/сек
Альбом                                   : Ночь короче дня
Альбом/Исполнитель                       : Ария
Трек                                     : Дух войны
Трек/Положение                           : 8
Трек/Всего                               : 9
Исполнитель                              : Ария
Жанр                                     : Heavy Metal
Дата записи                              : 1995
Дата кодирования                         : UTC 2038-09-17 07:59:11
Дата пометки                             : UTC 2014-05-29 08:36:22
Программа кодирования                    : X Lossless Decoder 20140504, QuickTime 7.7.1
Обложка                                  : Yes
Примечание                               : ExactAudioCopy v0.99pb3
iTunes_CDDB_1                            : 6A0A9109+203062+9+150+26507+48992+76045+93387+112700+131175+148032+170445
iTunes_CDDB_TrackNumber                  : 8

Аудио
Идентификатор                            : 1
Формат                                   : ALAC
Идентификатор кодека                     : alac
Идентификатор кодека/Информация          : Apple Lossless Audio Codec
Продолжительность                        : 4 м. 58 с.
Duration_LastFrame                       : -47 мс.
Вид битрейта                             : Переменный
Битрейт                                  : 1009 Кбит/сек
Каналы                                   : 2 канала
Частота                                  : 44,1 КГц
Битовая глубина                          : 16 бит
Размер потока                            : 35,9 Мбайт (98%)
Язык                                     : English
Дата кодирования                         : UTC 2038-09-17 07:59:11
Дата пометки                             : UTC 2014-05-29 08:36:22

Общее
Полное имя                               : /Users/Denis/Library/Containers/net.mediaarea.mediainfo.mac/Data/Music/iTunes/iTunes Media/Music/Ария/Ночь короче дня/09 Ночь короче дня.m4a
Формат                                   : MPEG-4
Профиль формата                          : Apple audio with iTunes info
Идентификатор кодека                     : M4A
Размер файла                             : 51,9 Мбайт
Продолжительность                        : 7 м. 14 с.
Режим общего битрейта                    : Переменный
Общий поток                              : 1001 Кбит/сек
Альбом                                   : Ночь короче дня
Альбом/Исполнитель                       : Ария
Трек                                     : Ночь короче дня
Трек/Положение                           : 9
Трек/Всего                               : 9
Исполнитель                              : Ария
Жанр                                     : Heavy Metal
Дата записи                              : 1995
Дата пометки                             : UTC 2014-05-29 08:36:25
Программа кодирования                    : X Lossless Decoder 20140504, QuickTime 7.7.1
Обложка                                  : Yes
Примечание                               : ExactAudioCopy v0.99pb3
iTunes_CDDB_1                            : 6A0A9109+203062+9+150+26507+48992+76045+93387+112700+131175+148032+170445
iTunes_CDDB_TrackNumber                  : 9

Аудио
Идентификатор                            : 1
Формат                                   : ALAC
Идентификатор кодека                     : alac
Идентификатор кодека/Информация          : Apple Lossless Audio Codec
Продолжительность                        : 7 м. 14 с.
Duration_LastFrame                       : -63 мс.
Вид битрейта                             : Переменный
Битрейт                                  : 990 Кбит/сек
Каналы                                   : 2 канала
Частота                                  : 44,1 КГц
Битовая глубина                          : 16 бит
Размер потока                            : 51,3 Мбайт (99%)
Язык                                     : English
Дата пометки                             : UTC 2014-05-29 08:36:25
Код: выделить все

-----------------------

DON'T MODIFY THIS FILE

-----------------------

PERFORMER: auCDtect Task Manager, ver. 1.6.0 RC1 build 1.6.0.1
Copyright (c) 2008-2010 y-soft. All rights reserved
http://y-soft.org

ANALYZER: auCDtect: CD records authenticity detector, version 0.8.2
Copyright (c) 2004 Oleg Berngardt. All rights reserved.
Copyright (c) 2004 Alexander Djourik. All rights reserved.

FILE: 09 Ночь короче дня.m4a
  Size: 54406282 Hash: A8FA868F6C9F8412D65035BD94511FCE Accuracy: -m8
  Conclusion: CDDA 100%
  Signature: FA94E5D46F9A32893D96E7185C50986C43BE6685
FILE: 08 Дух войны.m4a
  Size: 38270684 Hash: 9610732B900FC1FEDA68623D07CF9F08 Accuracy: -m8
  Conclusion: CDDA 100%
  Signature: 21E6384057C4F333571D2C73B5DB1EB20470C7B2
FILE: 07 Зверь.m4a
  Size: 28742411 Hash: 6DA098582EA0BF8F02D3993452E82724 Accuracy: -m8
  Conclusion: CDDA 100%
  Signature: 413735AEF6E1AA9085553099C6EE39D7E96A349E
FILE: 06 Возьми моё сердце.m4a
  Size: 30279927 Hash: FE73B6037A516A6255599FA9D4783002 Accuracy: -m8
  Conclusion: CDDA 100%
  Signature: 2FF0B66D804A31641B0D467BB928BE7F437153AF
FILE: 05 Король дороги.m4a
  Size: 33040125 Hash: 805CB8E499A5097A05F057B5A9855044 Accuracy: -m8
  Conclusion: CDDA 100%
  Signature: D20DAF18B650CBBF82ADC987AC38D6C3F28B7746
FILE: 04 Уходи, и не возвращайся.m4a
  Size: 28878301 Hash: 82D9EEC8787FEF0FE5CD8CD42C041AAA Accuracy: -m8
  Conclusion: CDDA 100%
  Signature: 9AAEE12440C67FB90E9C57C99A90745F19043524
FILE: 03 Ангельская пыль.m4a
  Size: 44198153 Hash: 72AD00EC547660A66874D39DEC1EB2C7 Accuracy: -m8
  Conclusion: CDDA 100%
  Signature: 8BBF17ACDD15AB6ABF4B3DFB4D8282DCDC91B06F
FILE: 02 Паранойя.m4a
  Size: 36858686 Hash: FFEFAF481839C6571B6B4C56AE623FC5 Accuracy: -m8
  Conclusion: CDDA 100%
  Signature: D476E896C8A5118A854838BDB6E09634EB15D762
FILE: 01 Рабство иллюзий.m4a
  Size: 44580433 Hash: 4FCB99B4ED373BA23ACABAC0E6BDE421 Accuracy: -m8
  Conclusion: CDDA 100%
  Signature: 7B2D05D55804AD748BA741594BBDE408AC0E9987

Все номерные альбомы группы АРИЯ в ALAC/Lossless/Tracks:
1. Мания величия (1985 год)
2. C кем ты (1986 год)
3. Герой асфальта (1987 год)
4. Игра с огнем (1989 год)
5. Кровь за кровь (1991 год)
6. Ночь короче дня (1995 год)
7. Генератор зла (1998 год)
8. Химера (2001 год)
9. Крещение огнем (2003 год)
10. Армагеддон (2006 год)
11. Феникс (2011 год)


Все альбомы (номерные, концертные, синглы трибьюты и сборники) группы АРИЯ в ALAC

Время раздачи: с 20:00 до 03:00 постоянно / часто 24/7
[NNM-Club.me]_Ariya (1995) Noch' koroche dnya.torrent
 Торрент: Платиновая раздача  Зарегистрирован
 
Скачать


Примагнититься
 Зарегистрирован:   30 Май 2014 11:59:50
 Размер:   324 MB  (
 Рейтинг:   4.6 (Голосов: 56)
 Поблагодарили:   146
 Проверка:   Оформление проверено модератором 30 Май 2014 14:52:10
Как cкачать  ·  Как раздать  ·  Правильно оформить  ·  Поднять ратио!  
art02zidane
Стаж: 1 год 8 мес.
Сообщений: 42
Ratio: 14.894
Раздал: 2.046 TB
Поблагодарили: 15
100%
ussr.gif
Ария с вокалом Валерия Кипелова - лучшая
Показать сообщения:   
Начать новую тему   Ответить на тему    Торрент-трекер NNM-Club -> Аудио и Видео -> Музыка Lossless (ALAC) Часовой пояс: GMT + 3
Страница 1 из 1