Классический форум-трекер
canvas not supported
Нас вместе: 4 166 468

Ария - Крещение огнем (2003) [ALAC|Tracks]<Heavy Metal>


 
 
RSS
Начать новую тему   Ответить на тему    Торрент-трекер NNM-Club -> Аудио и Видео -> Музыка Lossless (ALAC)
Автор Сообщение
Cecidit ®
Стаж: 7 лет 8 мес.
Сообщений: 129
Ratio: 39.772
Поблагодарили: 8806
100%
Откуда: Москва, МО Щелково
russia.gif
Ария - Крещение огнем (2003)
Год: 2003
Жанр: Heavy Metal
Продолжительность: 00:51:21

Кодек: ALAC
Битрейт: Lossless
Тип раздачи: Tracks
Обложки: Вшиты
Кодирование: XLD + QuickTime + iTunes

«Крещение огнём» — девятый студийный альбом группы Ария, вышел в мае 2003 года. Первый после раскола в 2002 году и первый с участием Артура Беркута и Сергея Попова.Песни «Колизей» и «Там высоко» были победителями хит-парада «Чартова дюжина».

Состав:
Артур Беркут — вокал
Владимир Холстинин — гитара, мандолина (2)
Виталий Дубинин — бас
Сергей Попов — гитара
Максим Удалов — барабаны

Треклист:
01. Патриот
02. Крещение Огнём
03. Колизей
04. Палач
05. Твой Новый Мир
06. Там Высоко...
07. Белый Флаг
08. Битва
09. Бал У Князя Тьмы
Код: выделить все

Общее
Полное имя                               : /Users/Denis/Library/Containers/net.mediaarea.mediainfo.mac/Data/Music/iTunes/iTunes Media/Music/Ария/Крещение огнем/01 Патриот.m4a
Формат                                   : MPEG-4
Профиль формата                          : Apple audio with iTunes info
Идентификатор кодека                     : M4A
Размер файла                             : 31,5 Мбайт
Продолжительность                        : 4 м. 20 с.
Режим общего битрейта                    : Переменный
Общий поток                              : 1017 Кбит/сек
Альбом                                   : Крещение огнем
Альбом/Исполнитель                       : Ария
Трек                                     : Патриот
Трек/Положение                           : 1
Трек/Всего                               : 9
Исполнитель                              : Ария
Жанр                                     : Heavy Metal
Дата записи                              : 2003
Дата кодирования                         : UTC 2037-02-17 02:24:15
Дата пометки                             : UTC 2014-05-29 09:05:19
Программа кодирования                    : X Lossless Decoder 20140504, QuickTime 7.7.1
Обложка                                  : Yes
Примечание                               : ExactAudioCopy v0.99pb4
iTunes_CDDB_1                            : 760DA80A+231256+9+150+19657+47389+76817+115968+134553+160104+181406+204279
iTunes_CDDB_TrackNumber                  : 1

Аудио
Идентификатор                            : 1
Формат                                   : ALAC
Идентификатор кодека                     : alac
Идентификатор кодека/Информация          : Apple Lossless Audio Codec
Продолжительность                        : 4 м. 20 с.
Duration_LastFrame                       : -63 мс.
Вид битрейта                             : Переменный
Битрейт                                  : 999 Кбит/сек
Каналы                                   : 2 канала
Частота                                  : 44,1 КГц
Битовая глубина                          : 16 бит
Размер потока                            : 31,0 Мбайт (98%)
Язык                                     : English
Дата кодирования                         : UTC 2037-02-17 02:24:15
Дата пометки                             : UTC 2014-05-29 09:05:19

Общее
Полное имя                               : /Users/Denis/Library/Containers/net.mediaarea.mediainfo.mac/Data/Music/iTunes/iTunes Media/Music/Ария/Крещение огнем/02 Крещение огнём.m4a
Формат                                   : MPEG-4
Профиль формата                          : Apple audio with iTunes info
Идентификатор кодека                     : M4A
Размер файла                             : 43,6 Мбайт
Продолжительность                        : 6 м. 9 с.
Режим общего битрейта                    : Переменный
Общий поток                              : 990 Кбит/сек
Альбом                                   : Крещение огнем
Альбом/Исполнитель                       : Ария
Трек                                     : Крещение огнём
Трек/Положение                           : 2
Трек/Всего                               : 9
Исполнитель                              : Ария
Жанр                                     : Heavy Metal
Дата записи                              : 2003
Дата пометки                             : UTC 2014-05-29 09:05:21
Программа кодирования                    : X Lossless Decoder 20140504, QuickTime 7.7.1
Обложка                                  : Yes
Примечание                               : ExactAudioCopy v0.99pb4
iTunes_CDDB_1                            : 760DA80A+231256+9+150+19657+47389+76817+115968+134553+160104+181406+204279
iTunes_CDDB_TrackNumber                  : 2

Аудио
Идентификатор                            : 1
Формат                                   : ALAC
Идентификатор кодека                     : alac
Идентификатор кодека/Информация          : Apple Lossless Audio Codec
Продолжительность                        : 6 м. 9 с.
Duration_LastFrame                       : -87 мс.
Вид битрейта                             : Переменный
Битрейт                                  : 977 Кбит/сек
Каналы                                   : 2 канала
Частота                                  : 44,1 КГц
Битовая глубина                          : 16 бит
Размер потока                            : 43,1 Мбайт (99%)
Язык                                     : English
Дата пометки                             : UTC 2014-05-29 09:05:21

Общее
Полное имя                               : /Users/Denis/Library/Containers/net.mediaarea.mediainfo.mac/Data/Music/iTunes/iTunes Media/Music/Ария/Крещение огнем/03 Колизей.m4a
Формат                                   : MPEG-4
Профиль формата                          : Apple audio with iTunes info
Идентификатор кодека                     : M4A
Размер файла                             : 47,1 Мбайт
Продолжительность                        : 6 м. 32 с.
Режим общего битрейта                    : Переменный
Общий поток                              : 1006 Кбит/сек
Альбом                                   : Крещение огнем
Альбом/Исполнитель                       : Ария
Трек                                     : Колизей
Трек/Положение                           : 3
Трек/Всего                               : 9
Исполнитель                              : Ария
Жанр                                     : Heavy Metal
Дата записи                              : 2003
Дата пометки                             : UTC 2014-05-29 09:05:24
Программа кодирования                    : X Lossless Decoder 20140504, QuickTime 7.7.1
Обложка                                  : Yes
Примечание                               : ExactAudioCopy v0.99pb4
iTunes_CDDB_1                            : 760DA80A+231256+9+150+19657+47389+76817+115968+134553+160104+181406+204279
iTunes_CDDB_TrackNumber                  : 3

Аудио
Идентификатор                            : 1
Формат                                   : ALAC
Идентификатор кодека                     : alac
Идентификатор кодека/Информация          : Apple Lossless Audio Codec
Продолжительность                        : 6 м. 32 с.
Duration_LastFrame                       : -44 мс.
Вид битрейта                             : Переменный
Битрейт                                  : 994 Кбит/сек
Каналы                                   : 2 канала
Частота                                  : 44,1 КГц
Битовая глубина                          : 16 бит
Размер потока                            : 46,5 Мбайт (99%)
Язык                                     : English
Дата пометки                             : UTC 2014-05-29 09:05:24

Общее
Полное имя                               : /Users/Denis/Library/Containers/net.mediaarea.mediainfo.mac/Data/Music/iTunes/iTunes Media/Music/Ария/Крещение огнем/04 Палач.m4a
Формат                                   : MPEG-4
Профиль формата                          : Apple audio with iTunes info
Идентификатор кодека                     : M4A
Размер файла                             : 62,6 Мбайт
Продолжительность                        : 8 м. 42 с.
Режим общего битрейта                    : Переменный
Общий поток                              : 1006 Кбит/сек
Альбом                                   : Крещение огнем
Альбом/Исполнитель                       : Ария
Трек                                     : Палач
Трек/Положение                           : 4
Трек/Всего                               : 9
Исполнитель                              : Ария
Жанр                                     : Heavy Metal
Дата записи                              : 2003
Дата пометки                             : UTC 2014-05-29 09:05:28
Программа кодирования                    : X Lossless Decoder 20140504, QuickTime 7.7.1
Обложка                                  : Yes
Примечание                               : ExactAudioCopy v0.99pb4
iTunes_CDDB_1                            : 760DA80A+231256+9+150+19657+47389+76817+115968+134553+160104+181406+204279
iTunes_CDDB_TrackNumber                  : 4

Аудио
Идентификатор                            : 1
Формат                                   : ALAC
Идентификатор кодека                     : alac
Идентификатор кодека/Информация          : Apple Lossless Audio Codec
Продолжительность                        : 8 м. 42 с.
Duration_LastFrame                       : -64 мс.
Вид битрейта                             : Переменный
Битрейт                                  : 996 Кбит/сек
Каналы                                   : 2 канала
Частота                                  : 44,1 КГц
Битовая глубина                          : 16 бит
Размер потока                            : 62,0 Мбайт (99%)
Язык                                     : English
Дата пометки                             : UTC 2014-05-29 09:05:28

Общее
Полное имя                               : /Users/Denis/Library/Containers/net.mediaarea.mediainfo.mac/Data/Music/iTunes/iTunes Media/Music/Ария/Крещение огнем/05 Твой новый мир.m4a
Формат                                   : MPEG-4
Профиль формата                          : Apple audio with iTunes info
Идентификатор кодека                     : M4A
Размер файла                             : 30,1 Мбайт
Продолжительность                        : 4 м. 7 с.
Режим общего битрейта                    : Переменный
Общий поток                              : 1019 Кбит/сек
Альбом                                   : Крещение огнем
Альбом/Исполнитель                       : Ария
Трек                                     : Твой новый мир
Трек/Положение                           : 5
Трек/Всего                               : 9
Исполнитель                              : Ария
Жанр                                     : Heavy Metal
Дата записи                              : 2003
Дата пометки                             : UTC 2014-05-29 09:05:34
Программа кодирования                    : X Lossless Decoder 20140504, QuickTime 7.7.1
Обложка                                  : Yes
Примечание                               : ExactAudioCopy v0.99pb4
iTunes_CDDB_1                            : 760DA80A+231256+9+150+19657+47389+76817+115968+134553+160104+181406+204279
iTunes_CDDB_TrackNumber                  : 5

Аудио
Идентификатор                            : 1
Формат                                   : ALAC
Идентификатор кодека                     : alac
Идентификатор кодека/Информация          : Apple Lossless Audio Codec
Продолжительность                        : 4 м. 7 с.
Duration_LastFrame                       : -3 мс.
Вид битрейта                             : Переменный
Битрейт                                  : 1000 Кбит/сек
Каналы                                   : 2 канала
Частота                                  : 44,1 КГц
Битовая глубина                          : 16 бит
Размер потока                            : 29,5 Мбайт (98%)
Язык                                     : English
Дата пометки                             : UTC 2014-05-29 09:05:34

Общее
Полное имя                               : /Users/Denis/Library/Containers/net.mediaarea.mediainfo.mac/Data/Music/iTunes/iTunes Media/Music/Ария/Крещение огнем/06 Там высоко....m4a
Формат                                   : MPEG-4
Профиль формата                          : Apple audio with iTunes info
Идентификатор кодека                     : M4A
Размер файла                             : 39,9 Мбайт
Продолжительность                        : 5 м. 40 с.
Режим общего битрейта                    : Переменный
Общий поток                              : 983 Кбит/сек
Альбом                                   : Крещение огнем
Альбом/Исполнитель                       : Ария
Трек                                     : Там высоко...
Трек/Положение                           : 6
Трек/Всего                               : 9
Исполнитель                              : Ария
Жанр                                     : Heavy Metal
Дата записи                              : 2003
Дата пометки                             : UTC 2014-05-29 09:05:36
Программа кодирования                    : X Lossless Decoder 20140504, QuickTime 7.7.1
Обложка                                  : Yes
Примечание                               : ExactAudioCopy v0.99pb4
iTunes_CDDB_1                            : 760DA80A+231256+9+150+19657+47389+76817+115968+134553+160104+181406+204279
iTunes_CDDB_TrackNumber                  : 6

Аудио
Идентификатор                            : 1
Формат                                   : ALAC
Идентификатор кодека                     : alac
Идентификатор кодека/Информация          : Apple Lossless Audio Codec
Продолжительность                        : 5 м. 40 с.
Duration_LastFrame                       : -3 мс.
Вид битрейта                             : Переменный
Битрейт                                  : 968 Кбит/сек
Каналы                                   : 2 канала
Частота                                  : 44,1 КГц
Битовая глубина                          : 16 бит
Размер потока                            : 39,3 Мбайт (99%)
Язык                                     : English
Дата пометки                             : UTC 2014-05-29 09:05:36

Общее
Полное имя                               : /Users/Denis/Library/Containers/net.mediaarea.mediainfo.mac/Data/Music/iTunes/iTunes Media/Music/Ария/Крещение огнем/07 Белый флаг.m4a
Формат                                   : MPEG-4
Профиль формата                          : Apple audio with iTunes info
Идентификатор кодека                     : M4A
Размер файла                             : 35,1 Мбайт
Продолжительность                        : 4 м. 44 с.
Режим общего битрейта                    : Переменный
Общий поток                              : 1038 Кбит/сек
Альбом                                   : Крещение огнем
Альбом/Исполнитель                       : Ария
Трек                                     : Белый флаг
Трек/Положение                           : 7
Трек/Всего                               : 9
Исполнитель                              : Ария
Жанр                                     : Heavy Metal
Дата записи                              : 2003
Дата пометки                             : UTC 2014-05-29 09:05:39
Программа кодирования                    : X Lossless Decoder 20140504, QuickTime 7.7.1
Обложка                                  : Yes
Примечание                               : ExactAudioCopy v0.99pb4
iTunes_CDDB_1                            : 760DA80A+231256+9+150+19657+47389+76817+115968+134553+160104+181406+204279
iTunes_CDDB_TrackNumber                  : 7

Аудио
Идентификатор                            : 1
Формат                                   : ALAC
Идентификатор кодека                     : alac
Идентификатор кодека/Информация          : Apple Lossless Audio Codec
Продолжительность                        : 4 м. 44 с.
Duration_LastFrame                       : -93 мс.
Вид битрейта                             : Переменный
Битрейт                                  : 1021 Кбит/сек
Каналы                                   : 2 канала
Частота                                  : 44,1 КГц
Битовая глубина                          : 16 бит
Размер потока                            : 34,6 Мбайт (98%)
Язык                                     : English
Дата пометки                             : UTC 2014-05-29 09:05:39

Общее
Полное имя                               : /Users/Denis/Library/Containers/net.mediaarea.mediainfo.mac/Data/Music/iTunes/iTunes Media/Music/Ария/Крещение огнем/08 Битва.m4a
Формат                                   : MPEG-4
Профиль формата                          : Apple audio with iTunes info
Идентификатор кодека                     : M4A
Размер файла                             : 35,7 Мбайт
Продолжительность                        : 5 м. 4 с.
Режим общего битрейта                    : Переменный
Общий поток                              : 981 Кбит/сек
Альбом                                   : Крещение огнем
Альбом/Исполнитель                       : Ария
Трек                                     : Битва
Трек/Положение                           : 8
Трек/Всего                               : 9
Исполнитель                              : Ария
Жанр                                     : Heavy Metal
Дата записи                              : 2003
Дата кодирования                         : UTC 1973-05-03 04:04:31
Дата пометки                             : UTC 2014-05-29 09:05:42
Программа кодирования                    : X Lossless Decoder 20140504, QuickTime 7.7.1
Обложка                                  : Yes
Примечание                               : ExactAudioCopy v0.99pb4
iTunes_CDDB_1                            : 760DA80A+231256+9+150+19657+47389+76817+115968+134553+160104+181406+204279
iTunes_CDDB_TrackNumber                  : 8

Аудио
Идентификатор                            : 1
Формат                                   : ALAC
Идентификатор кодека                     : alac
Идентификатор кодека/Информация          : Apple Lossless Audio Codec
Продолжительность                        : 5 м. 4 с.
Duration_LastFrame                       : -44 мс.
Вид битрейта                             : Переменный
Битрейт                                  : 966 Кбит/сек
Каналы                                   : 2 канала
Частота                                  : 44,1 КГц
Битовая глубина                          : 16 бит
Размер потока                            : 35,1 Мбайт (98%)
Язык                                     : English
Дата кодирования                         : UTC 1973-05-03 04:04:31
Дата пометки                             : UTC 2014-05-29 09:05:42

Общее
Полное имя                               : /Users/Denis/Library/Containers/net.mediaarea.mediainfo.mac/Data/Music/iTunes/iTunes Media/Music/Ария/Крещение огнем/09 Бал у князя тьмы.m4a
Формат                                   : MPEG-4
Профиль формата                          : Apple audio with iTunes info
Идентификатор кодека                     : M4A
Размер файла                             : 41,2 Мбайт
Продолжительность                        : 5 м. 59 с.
Режим общего битрейта                    : Переменный
Общий поток                              : 962 Кбит/сек
Альбом                                   : Крещение огнем
Альбом/Исполнитель                       : Ария
Трек                                     : Бал у князя тьмы
Трек/Положение                           : 9
Трек/Всего                               : 9
Исполнитель                              : Ария
Жанр                                     : Heavy Metal
Дата записи                              : 2003
Дата кодирования                         : UTC 1975-06-18 21:25:35
Дата пометки                             : UTC 2014-05-29 09:05:45
Программа кодирования                    : X Lossless Decoder 20140504, QuickTime 7.7.1
Обложка                                  : Yes
Примечание                               : ExactAudioCopy v0.99pb4
iTunes_CDDB_1                            : 760DA80A+231256+9+150+19657+47389+76817+115968+134553+160104+181406+204279
iTunes_CDDB_TrackNumber                  : 9

Аудио
Идентификатор                            : 1
Формат                                   : ALAC
Идентификатор кодека                     : alac
Идентификатор кодека/Информация          : Apple Lossless Audio Codec
Продолжительность                        : 5 м. 59 с.
Duration_LastFrame                       : -30 мс.
Вид битрейта                             : Переменный
Битрейт                                  : 948 Кбит/сек
Каналы                                   : 2 канала
Частота                                  : 44,1 КГц
Битовая глубина                          : 16 бит
Размер потока                            : 40,7 Мбайт (99%)
Язык                                     : English
Дата кодирования                         : UTC 1975-06-18 21:25:35
Дата пометки                             : UTC 2014-05-29 09:05:45
Код: выделить все

-----------------------

DON'T MODIFY THIS FILE

-----------------------

PERFORMER: auCDtect Task Manager, ver. 1.6.0 RC1 build 1.6.0.1
Copyright (c) 2008-2010 y-soft. All rights reserved
http://y-soft.org

ANALYZER: auCDtect: CD records authenticity detector, version 0.8.2
Copyright (c) 2004 Oleg Berngardt. All rights reserved.
Copyright (c) 2004 Alexander Djourik. All rights reserved.

FILE: 09 Бал у князя тьмы.m4a
  Size: 43247930 Hash: A34B29DBA132AB92BD0409A5098792ED Accuracy: -m8
  Conclusion: CDDA 100%
  Signature: 1DAFC6A7017EC46A954F3DC9F85BA3AC2AE3135A
FILE: 08 Битва.m4a
  Size: 37396032 Hash: 49EC386C0DA02A1B5C9C029FD0590A86 Accuracy: -m8
  Conclusion: CDDA 100%
  Signature: 362FC40E0D7C7701B869226A55817B63CCAD52D8
FILE: 07 Белый флаг.m4a
  Size: 36843841 Hash: 992D73DC4DFEB34AE1AC6886DD957953 Accuracy: -m8
  Conclusion: CDDA 100%
  Signature: B4FD23A2FC4E74E3E6377D2600A5807095D98A36
FILE: 06 Там высоко....m4a
  Size: 41844659 Hash: F5046B7085EFFA73410F951C84B44C54 Accuracy: -m8
  Conclusion: CDDA 100%
  Signature: 1B49CD86DA4BB0B0A7599A56A4A18AB8A7CAE1C7
FILE: 05 Твой новый мир.m4a
  Size: 31548232 Hash: E06D0EF2387580884EA0559FA1E5ECCB Accuracy: -m8
  Conclusion: CDDA 100%
  Signature: D9A094C47C5CBDF60D89584BA1C9BFAA66EAE53B
FILE: 04 Палач.m4a
  Size: 65626341 Hash: 227A5B93E62EFD917D7A8A7167BFBD63 Accuracy: -m8
  Conclusion: CDDA 100%
  Signature: 4858F0E09D9939E88ABD163FABC2447319A2E9DB
FILE: 03 Колизей.m4a
  Size: 49348961 Hash: CA90C82115946E86F36E76316D34A95D Accuracy: -m8
  Conclusion: CDDA 100%
  Signature: 1D2DCAC9366592314FA4DB48383FE77C403E647F
FILE: 02 Крещение огнём.m4a
  Size: 45748963 Hash: EFE14A7ED1C1A75AA1DDB6A78B3C7CD5 Accuracy: -m8
  Conclusion: CDDA 100%
  Signature: D97CEDA4C7A6E38F05EABA26E70861F959E04FEB
FILE: 01 Патриот.m4a
  Size: 33076832 Hash: 1322DCCBDBDA4B2B87700FE81F2BA72A Accuracy: -m0
  Conclusion: CDDA 100%
  Signature: 214EBEA5ED2461333D9348D66B8EAC3C46E242FC

Все номерные альбомы группы АРИЯ в ALAC/Lossless/Tracks:
1. Мания величия (1985 год)
2. C кем ты (1986 год)
3. Герой асфальта (1987 год)
4. Игра с огнем (1989 год)
5. Кровь за кровь (1991 год)
6. Ночь короче дня (1995 год)
7. Генератор зла (1998 год)
8. Химера (2001 год)
9. Крещение огнем (2003 год)
10. Армагеддон (2006 год)
11. Феникс (2011 год)


Все альбомы (номерные, концертные, синглы трибьюты и сборники) группы АРИЯ в ALAC

Время раздачи: с 20:00 до 03:00 постоянно / часто 24/7
[NNM-Club.me]_Ariya (2003) Kreshchenie ognem.torrent
 Торрент: Платиновая раздача  Зарегистрирован
 
Скачать


Примагнититься
 Зарегистрирован:   30 Май 2014 12:01:34
 Размер:   367 MB  (
 Рейтинг:   4.7 (Голосов: 49)
 Поблагодарили:   132
 Проверка:   Оформление проверено модератором 30 Май 2014 14:52:48
Как cкачать  ·  Как раздать  ·  Правильно оформить  ·  Поднять ратио!  
alpex
Стаж: 12 лет 3 мес.
Сообщений: 279
Ratio: 10.73
100%
В детстве нравилась "Ария", пока не услышал Iron Maiden и Manowar.
Показать сообщения:   
Начать новую тему   Ответить на тему    Торрент-трекер NNM-Club -> Аудио и Видео -> Музыка Lossless (ALAC) Часовой пояс: GMT + 3
Страница 1 из 1