Классический форум-трекер
canvas not supported
Нас вместе: 4 114 337

Во все тяжкие / Breaking Bad (2008-2013) BDRip [H.264] (сезон 1-5, серии 1-62 из 62) (LostFilm)


Страницы:   Пред.  1, 2, 3, 4, 5, 6, 7, 8, 9  След. 
 
RSS
Начать новую тему   Ответить на тему    Торрент-трекер NNM-Club -> Зарубежные сериалы -> Во все тяжкие / Breaking Bad
Автор Сообщение
lazarevmike ®
 
Стаж: 7 лет 11 мес.
Сообщений: 47
Ratio: 3,92
Раздал: 1,922 TB
Поблагодарили: 5127
100%
Откуда: Новосибирск
russia.gif
Во все тяжкие / Breaking Bad (2008-2013) BDRip [H.264] (сезон 1-5, серии 1-62 из 62) (LostFilm)
Жанр: Драма, Триллер, Криминал

Перевод: Многоголосый закадровый, профессиональный - LostFilm
Вид субтитров: Вшитые отключаемые
Язык субтитров: Русский


Дата мировой премьеры: 20 января 2008
Дата российской премьеры: 20 января 2008

Режиссер: Мишель Максвелл МакЛарен, Адам Бернштейн, Винс Гиллиган
Актеры: Брайан Крэнстон, Анна Ганн, Аарон Пол, Дин Норрис, Бетси Брандт, Ар Джей Митт

Описание фильма:
Школьный учитель химии Уолтер Уайт узнаёт, что болен раком лёгких. Учитывая сложное финансовое состояние дел семьи, а также перспективы, Уолтер решает заняться изготовлением метамфетамина. Для этого он привлекает своего бывшего ученика Джесси Пинкмана, когда-то исключённого из школы при активном содействии Уайта. Пинкман сам занимался «варкой мета», но накануне, в ходе рейда ОБН, он лишился подельника и лаборатории…

Продолжительность: ~00:47:00 серия
Качество видео: BDRip
Сэмпл

Видеокодек: MPEG-4 AVC/H.264
Битрейт видео: ~3619 Кбит/с
Размер кадра: 1024x576 (16:9)
Аудиокодек: AC3 5.1
Битрейт аудио: 384 Кбит/с
Общее
Полное имя : F:\Фильмы\Сериалы\Breaking Bad (Во все тяжкие) (2008-2013) BDRip\Season 1\Breaking Bad S01E05 BDRip.mkv
Формат : Matroska
Версия формата : Version 2
Размер файла : 1,38 Гбайт
Продолжительность : 48 м.
Общий поток : 4085 Кбит/сек
Название фильма : Breaking Bad S01E05 BDRip
Дата кодирования : UTC 2013-12-27 15:42:38
Программа кодирования : mkvmerge v6.6.0 ('The Edge Of The In Between') built on Dec 1 2013 17:55:00
Библиотека кодирования : libebml v1.3.0 + libmatroska v1.4.1
Attachment : Yes / Yes / Yes / Yes / Yes

Видео
Идентификатор : 1
Формат : AVC
Формат/Информация : Advanced Video Codec
Профиль формата : High@L4.0
Параметр CABAC формата : Да
Параметр ReFrames формата : 11 кадров
Идентификатор кодека : V_MPEG4/ISO/AVC
Продолжительность : 48 м.
Битрейт : 3619 Кбит/сек
Ширина : 1024 пикселя
Высота : 576 пикселей
Соотношение сторон : 16:9
Режим частоты кадров : Постоянный
Частота кадров : 23,976 кадра/сек
Цветовое пространство : YUV
Субдискретизация насыщенности : 4:2:0
Битовая глубина : 8 бит
Тип развёртки : Прогрессивная
Бит/(Пиксели*Кадры) : 0.256
Размер потока : 1,22 Гбайт (89%)
Библиотека кодирования : x264 core 104 r1698 c41b8f0
Язык : English
Default : Да
Forced : Нет

Аудио
Идентификатор : 2
Формат : AC-3
Формат/Информация : Audio Coding 3
Расширение режима : CM (complete main)
Параметр Endianness формата : Big
Идентификатор кодека : A_AC3
Продолжительность : 48 м.
Вид битрейта : Постоянный
Битрейт : 384 Кбит/сек
Каналы : 6 каналов
Расположение каналов : Front: L C R, Side: L R, LFE
Частота : 48,0 КГц
Битовая глубина : 16 бит
Метод сжатия : С потерями
Размер потока : 132 Мбайт (9%)
Заголовок : MVO (LostFilm)
Язык : Russian
Default : Да
Forced : Нет
Общее
Полное имя : F:\Фильмы\Сериалы\Breaking Bad (Во все тяжкие) (2008-2013) BDRip\Season 2\Breaking Bad S02E07 BDRip.mkv
Формат : Matroska
Версия формата : Version 2
Размер файла : 1,24 Гбайт
Продолжительность : 47 м.
Общий поток : 3750 Кбит/сек
Название фильма : Breaking Bad S02E07 BDRip
Дата кодирования : UTC 2013-12-27 16:41:22
Программа кодирования : mkvmerge v6.6.0 ('The Edge Of The In Between') built on Dec 1 2013 17:55:00
Библиотека кодирования : libebml v1.3.0 + libmatroska v1.4.1
Attachment : Yes / Yes / Yes / Yes / Yes

Видео
Идентификатор : 1
Формат : AVC
Формат/Информация : Advanced Video Codec
Профиль формата : High@L4.0
Параметр CABAC формата : Да
Параметр ReFrames формата : 11 кадров
Идентификатор кодека : V_MPEG4/ISO/AVC
Продолжительность : 47 м.
Битрейт : 3291 Кбит/сек
Ширина : 1024 пикселя
Высота : 576 пикселей
Соотношение сторон : 16:9
Режим частоты кадров : Постоянный
Частота кадров : 23,976 кадра/сек
Цветовое пространство : YUV
Субдискретизация насыщенности : 4:2:0
Битовая глубина : 8 бит
Тип развёртки : Прогрессивная
Бит/(Пиксели*Кадры) : 0.233
Размер потока : 1,09 Гбайт (88%)
Библиотека кодирования : x264 core 104 r1703 cd21d05
Язык : English
Default : Да
Forced : Нет

Аудио
Идентификатор : 2
Формат : AC-3
Формат/Информация : Audio Coding 3
Расширение режима : CM (complete main)
Параметр Endianness формата : Big
Идентификатор кодека : A_AC3
Продолжительность : 47 м.
Вид битрейта : Постоянный
Битрейт : 384 Кбит/сек
Каналы : 6 каналов
Расположение каналов : Front: L C R, Side: L R, LFE
Частота : 48,0 КГц
Битовая глубина : 16 бит
Метод сжатия : С потерями
Размер потока : 130 Мбайт (10%)
Заголовок : MVO (LostFilm)
Язык : Russian
Default : Да
Forced : Нет

Текст
Идентификатор : 3
Формат : ASS
Идентификатор кодека : S_TEXT/ASS
Идентификатор кодека/Информация : Advanced Sub Station Alpha
Метод сжатия : Без потерь
Заголовок : Forced
Язык : Russian
Default : Да
Forced : Нет
бщее
Полное имя : F:\Фильмы\Сериалы\Breaking Bad (Во все тяжкие) (2008-2013) BDRip\Season 3\Breaking Bad S03E07 BDRip.mkv
Формат : Matroska
Версия формата : Version 2
Размер файла : 1,26 Гбайт
Продолжительность : 47 м.
Общий поток : 3828 Кбит/сек
Название фильма : Breaking Bad S03E07 BDRip
Дата кодирования : UTC 2013-12-27 22:35:14
Программа кодирования : mkvmerge v6.6.0 ('The Edge Of The In Between') built on Dec 1 2013 17:55:00
Библиотека кодирования : libebml v1.3.0 + libmatroska v1.4.1
Attachment : Yes / Yes / Yes / Yes / Yes / Yes

Видео
Идентификатор : 1
Формат : AVC
Формат/Информация : Advanced Video Codec
Профиль формата : High@L4.0
Параметр CABAC формата : Да
Параметр ReFrames формата : 11 кадров
Идентификатор кодека : V_MPEG4/ISO/AVC
Продолжительность : 47 м.
Битрейт : 3368 Кбит/сек
Ширина : 1024 пикселя
Высота : 576 пикселей
Соотношение сторон : 16:9
Режим частоты кадров : Постоянный
Частота кадров : 23,976 кадра/сек
Цветовое пространство : YUV
Субдискретизация насыщенности : 4:2:0
Битовая глубина : 8 бит
Тип развёртки : Прогрессивная
Бит/(Пиксели*Кадры) : 0.238
Размер потока : 1,11 Гбайт (88%)
Библиотека кодирования : x264 core 116 r2057 0ba8a9c
Язык : English
Default : Да
Forced : Нет
Коэффициенты матрицы : BT.709

Аудио
Идентификатор : 2
Формат : AC-3
Формат/Информация : Audio Coding 3
Расширение режима : CM (complete main)
Параметр Endianness формата : Big
Идентификатор кодека : A_AC3
Продолжительность : 47 м.
Вид битрейта : Постоянный
Битрейт : 384 Кбит/сек
Каналы : 6 каналов
Расположение каналов : Front: L C R, Side: L R, LFE
Частота : 48,0 КГц
Битовая глубина : 16 бит
Метод сжатия : С потерями
Размер потока : 130 Мбайт (10%)
Заголовок : MVO (LostFilm)
Язык : Russian
Default : Да
Forced : Нет

Текст
Идентификатор : 3
Формат : ASS
Идентификатор кодека : S_TEXT/ASS
Идентификатор кодека/Информация : Advanced Sub Station Alpha
Метод сжатия : Без потерь
Заголовок : Forced
Язык : Russian
Default : Да
Forced : Нет
Общее
Полное имя : F:\Фильмы\Сериалы\Breaking Bad (Во все тяжкие) (2008-2013) BDRip\Season 4\Breaking Bad S04E07 BDRip.mkv
Формат : Matroska
Версия формата : Version 2
Размер файла : 779 Мбайт
Продолжительность : 47 м.
Общий поток : 2305 Кбит/сек
Название фильма : Breaking Bad S04E07 BDRip
Дата кодирования : UTC 2013-12-27 23:21:34
Программа кодирования : mkvmerge v6.6.0 ('The Edge Of The In Between') built on Dec 1 2013 17:55:00
Библиотека кодирования : libebml v1.3.0 + libmatroska v1.4.1
Attachment : Yes / Yes / Yes / Yes / Yes / Yes / Yes / Yes

Видео
Идентификатор : 1
Формат : AVC
Формат/Информация : Advanced Video Codec
Профиль формата : High@L4.0
Параметр CABAC формата : Да
Параметр ReFrames формата : 11 кадров
Идентификатор кодека : V_MPEG4/ISO/AVC
Продолжительность : 47 м.
Битрейт : 1876 Кбит/сек
Ширина : 1024 пикселя
Высота : 576 пикселей
Соотношение сторон : 16:9
Режим частоты кадров : Постоянный
Частота кадров : 23,976 кадра/сек
Цветовое пространство : YUV
Субдискретизация насыщенности : 4:2:0
Битовая глубина : 8 бит
Тип развёртки : Прогрессивная
Бит/(Пиксели*Кадры) : 0.133
Размер потока : 633 Мбайт (81%)
Библиотека кодирования : x264 core 125 r2208kMod d9d2288
Язык : English
Default : Да
Forced : Нет
Коэффициенты матрицы : BT.709

Аудио
Идентификатор : 2
Формат : AC-3
Формат/Информация : Audio Coding 3
Расширение режима : CM (complete main)
Параметр Endianness формата : Big
Идентификатор кодека : A_AC3
Продолжительность : 47 м.
Вид битрейта : Постоянный
Битрейт : 384 Кбит/сек
Каналы : 6 каналов
Расположение каналов : Front: L C R, Side: L R, LFE
Частота : 48,0 КГц
Битовая глубина : 16 бит
Метод сжатия : С потерями
Размер потока : 130 Мбайт (17%)
Заголовок : MVO (LostFilm)
Язык : Russian
Default : Да
Forced : Нет

Текст
Идентификатор : 3
Формат : ASS
Идентификатор кодека : S_TEXT/ASS
Идентификатор кодека/Информация : Advanced Sub Station Alpha
Метод сжатия : Без потерь
Заголовок : Forced
Язык : Russian
Default : Да
Forced : Нет
бщее
Полное имя : F:\Фильмы\Сериалы\Breaking Bad (Во все тяжкие) (2008-2013) BDRip\Season 5\Breaking Bad S05E07 BDRip.mkv
Формат : Matroska
Версия формата : Version 2
Размер файла : 1,18 Гбайт
Продолжительность : 47 м.
Общий поток : 3586 Кбит/сек
Название фильма : Breaking Bad S05E07 BDRip
Дата кодирования : UTC 2013-12-31 07:02:12
Программа кодирования : mkvmerge v6.6.0 ('The Edge Of The In Between') built on Dec 1 2013 17:55:00
Библиотека кодирования : libebml v1.3.0 + libmatroska v1.4.1

Видео
Идентификатор : 1
Формат : AVC
Формат/Информация : Advanced Video Codec
Профиль формата : High@L4.1
Параметр CABAC формата : Да
Параметр ReFrames формата : 4 кадра
Идентификатор кодека : V_MPEG4/ISO/AVC
Продолжительность : 47 м.
Битрейт : 3200 Кбит/сек
Ширина : 1024 пикселя
Высота : 576 пикселей
Соотношение сторон : 16:9
Режим частоты кадров : Постоянный
Частота кадров : 23,976 кадра/сек
Цветовое пространство : YUV
Субдискретизация насыщенности : 4:2:0
Битовая глубина : 8 бит
Тип развёртки : Прогрессивная
Бит/(Пиксели*Кадры) : 0.226
Размер потока : 1,03 Гбайт (87%)
Язык : English
Default : Да
Forced : Нет

Аудио
Идентификатор : 2
Формат : AC-3
Формат/Информация : Audio Coding 3
Расширение режима : CM (complete main)
Параметр Endianness формата : Big
Идентификатор кодека : A_AC3
Продолжительность : 47 м.
Вид битрейта : Постоянный
Битрейт : 384 Кбит/сек
Каналы : 6 каналов
Расположение каналов : Front: L C R, Side: L R, LFE
Частота : 48,0 КГц
Битовая глубина : 16 бит
Метод сжатия : С потерями
Размер потока : 130 Мбайт (11%)
Заголовок : MVO (LostFilm)
Язык : Russian
Default : Да
Forced : Нет
Скриншоты:

Все релизы "Во все тяжкие / Breaking Bad"
Время раздачи: с 20:00 до 8:00 по мск
[NNM-Club.me]_Breaking Bad (Vo vse tyazhkie) (2008-2013) BDRip.torrent
 Торрент: Платиновая раздача  Зарегистрирован
 
Скачать


Примагнититься
 Зарегистрирован:   26 Май 2014 15:57:53
 Размер:   70,5 GB  (
 Рейтинг:   4,9 (Голосов: 1540)
 Поблагодарили:   5127
 Проверка:   Оформление проверено модератором 27 Май 2014 10:48:06
Как cкачать  ·  Как раздать  ·  Правильно оформить  ·  Поднять ратио!  
salmail
Стаж: 9 лет 9 мес.
Сообщений: 42
Ratio: 6,668
Поблагодарили: 205
100%
russia.gif
Спасибо большое!
ruanon
Стаж: 8 лет 6 мес.
Сообщений: 79
Ratio: 2,137
69.36%
russia.gif
Сериал который не надоедает пересматривать.
massad1979
Стаж: 7 лет 5 мес.
Сообщений: 2
Ratio: 3,324
1.3%
Раздача для новичков. Как такое можно смотреть? Урезано в край, сюжет отследить невозможно. Даже если смотрел.... ФЕЙК
ушук
Стаж: 7 лет 6 мес.
Сообщений: 214
Ratio: 123,578
Раздал: 80,43 TB
100%
russia.gif
Во все тяжкие (Breaking Bad 2008-2013) спасибо вам за сериал.

_________________
ушук
Andrey_111
Стаж: 9 лет 4 мес.
Сообщений: 24
Ratio: 5,27
25.95%
russia.gif
Этот сериал очень сильно развращает и навязывает диструктивные установки. Такого количеств дерьма на единицу времени я еще не видел. Очень интересно в начале, но долго не выдержал, потому что это отвратительно. Лицам до 30 лет вообще не рекомендую.

P.S. А еще, по-моему, видел этот сериал в списке "5 сериалов для саморазвития". Мало того, что "сериал для саморазвития" - это бред. Но еще именно этот... Разумеется, можно говорить об интересных мыслях и моментах, но по соотношению к тому количеству гадости... будет примерно 10 к 90. Стоит оно того?
tutub333-II
Стаж: 3 года 7 мес.
Сообщений: 65
Ratio: 16,566
64.18%
Сериал рекомендован к просмотру советской технической интеллигенции возрастной категории аналогичной главному герою.

Пассивно (а некоторые даже активно) допустив развал своей родины, давшей им БЕСПЛАТНОЕ образование (в т.ч. высшее техническое – одно из самых дорогостоящих в мире) они все последние 25 лет могли на своем личном опыте убедиться в «прелестях капитализма» (как теоретического (наука-образование) так и практического (производство)).

Итог – см. данный сериал.

Если, где и востребованы знания постсоветских химиков-«физиков» (в отличие от «лириков»= «клоунов у [редиска]»), так это не в транснациональных монополиях, где (в отличие от разглагольствований «прорабов перестройки») человек=винтик (заменяемый в любой момент немцем, индусом, японцем и т.п.), а в ТЕНЕВОЙ ЭКОНОМИКЕ.

И им еще повезет если это – отрасль «относительно безопасного» фальсификата.

Более реальный вариант – быть «ботаном» на службе у какой-нибудь ОПГ промышляющей наркотой.

А там не то, что медстраховки, нет даже «пенсии».

Как говорится: «вход – рубль, выход – два».

А чаще – не «два рубля», а две пули в затылок.

Нет уже лучше – учителем в школе.

_________________
Вопрос АРМЯНСКОМУ РАДИО: когда будет построено БЕСКЛАССОВОЕ общество?
Ответ АРМЯНСКОГО РАДИО: когда человечество перестанет делиться не на капиталистов и пролетариев, а на ЭНЕРГОДОНОРОВ (см. «средний класс») и ЭНЕРГОВАМПИРОВ (см. «элиты» = «Громкопердовы» + «быдло» = «Тихобзделовы»)!
МитяйЙ
Стаж: 5 лет 2 мес.
Сообщений: 56
Ratio: 312,496
Раздал: 46,43 TB
100%
ussr.gif
Сериал просто бомба!!!!
TheUniver​seOfDeath​
 
Стаж: 10 лет 6 мес.
Сообщений: 44
Ratio: 7,86
100%
Большое спасибо за ваш труд.
blad-joker
Стаж: 8 лет 3 мес.
Сообщений: 345
Ratio: 10,3
Раздал: 10,69 TB
Поблагодарили: 4461
36.62%
russia.gif
Не припомню ни одного сериала в последние время, именно сериала, который действительно было б интересно пересматривать спустя время. Данное произведение, построено очень красочно и колоритно, все персонажи замечательно прописаны и им всем, хочется верить. Чувство одиночества и некой изоляции, не живости реальных знаний/дпиломов/успеха в Альбукерке ни чувствуются, ни в ком и в этом понимаешь Джесси, в семье и работе понимаешь Уайта. То, что все пошло по-наклонной показано максимально грамотно и чувство предвкушения успеха и вероятность обнаружения скрытых тайн и логичную, в конечно счете апатию и опустошенность главного героя, который уже и сам потерялся во всем этом. Герой испытавший невероятное количество стресса и испытаний на своем пути, желающий жить как и оставаться как всегда, вероятно и сам не всегда замечающий своих изменений, хоть и старающийся следить за своими действиями в максимально шахматном порядке, ну и, конечно Альбукерке, город в пустыне, дающий в некоторых максимально пустынных жарких и утомительных кадрах подумать о своем поведении и никуда не торопиться, это вам не Нью-Йорк все-таки, где в любом баре можно забыться и тебя никто не узнает, здесь, все, шапочно друг с другом знакомы.

В заключение добавлю, что Главный герой максимально живо, а в некоторых кадрах провел миллесекундную-мимикрическую актерскую игру, только за этим уже интересно наблюдать. Тема наркобизнеса, конечно, уже, довольно "избита"), но ведь в сериале поднимаете целый ворох реально-общественно-государственных проблем.

И кстати, тут я еще видел комментарии по-типу скучно-затянутости повествования (По этой причине 50% моих знакомых слили сериал, где-то на середине 2го сезона), так я на это скажу, что как еще раскрутить эту машину? Ведь только таким повестованием, можно увидеть и почувствовать все аспекты становления и итоговую разницу между ГГ 1го/5го сезона)
ivan1999nnm
Стаж: 7 лет 10 мес.
Сообщений: 104
Ratio: 8,574
64.6%
blad-joker
Вот реально удивили фразой "50% знакомых не осилили сериал"
Кстати, если кто не следит - Кубики озвучили продолжение.
Azazzel
Стаж: 4 года 5 мес.
Сообщений: 1
Ratio: 70,588
1.82%
спасибо !
Averkiy
Стаж: 7 лет 7 мес.
Сообщений: 137
Ratio: 10,988
100%
Испанский без перевода. Релизёр Caballo de pedal :злость:
sigein
Стаж: 8 лет 10 мес.
Сообщений: 1
Ratio: 2,347
16%
Andrey_111 писал(а): Перейти к сообщению
Этот сериал очень сильно развращает и навязывает диструктивные установки. Такого количеств дерьма на единицу времени я еще не видел. Очень интересно в начале, но долго не выдержал, потому что это отвратительно. Лицам до 30 лет вообще не рекомендую.

P.S. А еще, по-моему, видел этот сериал в списке "5 сериалов для саморазвития". Мало того, что "сериал для саморазвития" - это бред. Но еще именно этот... Разумеется, можно говорить об интересных мыслях и моментах, но по соотношению к тому количеству гадости... будет примерно 10 к 90. Стоит оно того?


Развращает ? Как раз наоборот - наглядно показаны последствия выбора главного героя, которые он пытался оправдать заботой о своей семье. Очень четко - грехопадение и расплата за все деяния. И что очень круто - никаких голливудских хеппи-эндов.
mishajp
Стаж: 8 лет 9 мес.
Сообщений: 19
Ratio: 3,983
0.54%
Идея хорошая, но как я понял, английские субтитры и оригинальный саундтрек отсутствуют? Вот не понимаю, зачем громоздить гигабайты и срезать то что может быть многим интересно - посмотреть в оригинале.
Ram48rus
Стаж: 10 лет 7 мес.
Сообщений: 314
Ratio: 26,012
Раздал: 24,98 TB
100%
Откуда: Липецк
russia.gif
Народ, без обид, но этот шедевр необходимо смотреть только в озвучке КвК.
Показать сообщения:   
Начать новую тему   Ответить на тему    Торрент-трекер NNM-Club -> Зарубежные сериалы -> Во все тяжкие / Breaking Bad Часовой пояс: GMT + 3
Страницы:   Пред.  1, 2, 3, 4, 5, 6, 7, 8, 9  След.
Страница 8 из 9