Классический форум-трекер
canvas not supported
Нас вместе: 4 114 238

Гаттака / Gattaca (1997) [1080p] BDRip


 
 
RSS
Начать новую тему   Ответить на тему    Торрент-трекер NNM-Club -> Зарубежное кино -> Зарубежные Фильмы (HD, UHD-LQ)
Автор Сообщение
SNAUTS ®
Ценитель HD
Uploader 1000+
Стаж: 9 лет 11 мес.
Сообщений: 2111
Ratio: 70K
Поблагодарили: 142321
100%
Откуда: .. и только свежий космос
ussr.gif
Гаттака / Gattaca (1997) [1080p] BDRip
«The Prisoner. His Cell.»
Русское название: Гаттака
Оригинальное название: Gattaca
Страна: США
Год выпуска: 1997
Жанр: Фантастика, триллер, мелодрама, драма

Описание фильма:
Добро пожаловать в Гаттаку — совершенный мир будущего. Здесь каждый генетически запрограммирован, и печальная судьба ожидает тех, кто был рожден в любви, а не в лаборатории. Такова судьба Винсента Фримана, молодого человека, получившего при рождении ярлык «не пригоден».

Винсент обладает весомыми недостатками: он подвержен страстям, он поддается эмоциям, и он верит в то, что его мечты сбудутся. Вот почему он покупает личность другого человека, пытаясь обмануть власти и стать уважаемым членом Корпорации Будущего Гаттака.

И когда он уже на пути к свободе, убийство грозит раскрытием его реальной личности. Несмотря на свою невиновность, Винсенту есть что скрывать и есть что терять. Но так трудно остаться в живых, когда в тебе живут два человека…

Режиссер: Эндрю Никкол
Актеры: Этан Хоук, Ума Турман, Джуд Лоу, Гор Видал, Ксандер Беркли, Джейн Брук, Элиас Котеас, Майя Рудольф, Уна Дэймон, Элизабет Деннехи, Блэр Андервуд, Мейсон Гэмбл, Винсент Нилсон, Чад Крист, Уильям Ли Скотт, Кларенс Грэхэм, Эрнест Боргнайн, Тони Шэлуб, Алан Аркин, Карлтон Бембри, Синтия Мартеллс

Продолжительность: 01:46:27
Перевод: Дублированный, Многоголосый закадровый, Авторский
Субтитры: Английские, Русские


Рейтинг MPAA: PG – 13 – лицам до 13 лет обязательное присутствие родителей!!!

Дата мировой премьеры: 7 сентября 1997,

Видеокодек: MPEG-4 AVC/H.264
Битрейт видео: ~ 12.7 Мбит/с
Размер кадра: 1920x800
Качество видео: BDRip

Аудио:
1. Dolby Digital Русский 640 kbps 5.1 48 kHz (Дублированный - Blu-ray EUR)
2. Dolby Digital Русский 192 kbps 2.0 48 kHz (Многоголосый закадровый - R5)
3. DTS Русский 1510 kbps 5.1 48 kHz 24-bit (Авторский - Ю.Сербин)
4. DTS Русский 1510 kbps 5.1 48 kHz 24-bit (Авторский - Ю.Живов)
5. DTS Русский 1510 kbps 5.1 48 kHz 24-bit (Авторский - А.Попов)
6. DTS Английский 1510 kbps 5.1 48 kHz 24-bit
Сатурн, 1999 год
Номинации (1):
Лучшее VHS-издание

Оскар, 1998 год
Номинации (1):
Лучшие декорации

Золотой глобус, 1998 год
Номинации (1):
Лучший саундтрек

Сатурн, 1998 год
Номинации (2):
Лучшие костюмы
Лучшая музыка
• Во время съемок фильма Ума Турман и Этан Хоук стали встречаться, через год она родила ребёнка и они поженились.
• Объявления внутри здания Гаттаки произносятся на искусственном языке эсперанто.
• В финальных титрах в именах и фамилиях участников голубым цветом выделены буквы, образующие название фильма.
• Героиня Умы Турман названа в честь итальянского астронома Кассини. В год выхода фильма к Сатурну был запущен одноименный зонд, а в 2005 году он достиг Титана — главной цели Винсента.
• В фильме используются автомобили 1960-х годов: полицейский Rover P6 и Citroеn DS, на котором ездит Айрин.
• Все участвующие в фильме автомобили - электромобили. Бесконтактное зарядное устройство, используемое в фильме, взято от электромобиля EV1 выпущенного в 1999-м году.
• Лестница в квартире Джерома стилизована под спираль ДНК.
• Слово «гаттака» образовано из первых букв четырех азотистых оснований цепей ДНК (дезоксирибонуклеиновая кислота) – аденин, гуанин, цитозин и тимин.
• Колоссальное сооружение Гаттаки в действительности является зданием «Marin County Civil Center», расположенном в Сан Рафаэле (Калифорния, США) и построенном архитектором Фрэнком Ллойдом Райтом (Frank lloyd Wright) в 1957 году. И это здание также фигурировало в дебютном фантастическом фильме Джорджа Лукаса (George Lucas) «THX 1138».
• Первоначально картина называлась «Восьмой день» (The Eighth Day).
• Общая длина 35-миллиметровой пленки фильма «Гаттака» – 2918 метров.
• Автомобиль, на котором ездил Винсент Фриман – «Studebaker Avanti» 1963 года.
General
Unique ID : 186013508251285539108118888317857042323 (0x8BF0E6080A040A3CB98781EE9FE00F93)
Complete name : C:\Кинозал\Gattaka.1997.x264.BDRip.1080p.mkv
Format : Matroska
Format version : Version 2
File size : 14.8 GiB
Duration : 1h 46mn
Overall bit rate : 19.9 Mbps
Encoded date : UTC 2011-10-10 07:37:14
Writing application : mkvmerge v5.0.0 ('Die Wahre Liebe') built on Sep 25 2011 20:33:49
Writing library : libebml v1.2.2 + libmatroska v1.3.0
Attachment : Yes / Yes
Video #1
ID : 1
Format : AVC
Format/Info : Advanced Video Codec
Format profile : High@L4.1
Format settings, CABAC : Yes
Format settings, ReFrames : 5 frames
Codec ID : V_MPEG4/ISO/AVC
Duration : 1h 46mn
Bit rate : 12.7 Mbps
Width : 1 920 pixels
Height : 800 pixels
Display aspect ratio : 2.40:1
Frame rate : 23.976 fps
Color space : YUV
Chroma subsampling : 4:2:0
Bit depth : 8 bits
Scan type : Progressive
Bits/(Pixel*Frame) : 0.344
Stream size : 9.41 GiB (64%)
Writing library : x264 core 118 r2085kMod 8a62835
Encoding settings : cabac=1 / ref=5 / deblock=1:-3:-3 / analyse=0x3:0x133 / me=umh / subme=11 / psy=1 / fade_compensate=0.00 / psy_rd=1.00:0.00 / mixed_ref=1 / me_range=32 / chroma_me=1 / trellis=2 / 8x8dct=1 / cqm=0 / deadzone=21,11 / fast_pskip=0 / chroma_qp_offset=-2 / threads=12 / sliced_threads=0 / nr=0 / decimate=1 / interlaced=0 / bluray_compat=0 / constrained_intra=0 / bframes=10 / b_pyramid=2 / b_adapt=2 / b_bias=0 / direct=3 / weightb=1 / open_gop=0 / weightp=2 / keyint=250 / keyint_min=23 / scenecut=40 / intra_refresh=0 / rc_lookahead=60 / rc=crf / mbtree=0 / crf=18.0000 / qcomp=0.65 / qpmin=0 / qpmax=69 / qpstep=4 / vbv_maxrate=50000 / vbv_bufsize=62500 / crf_max=0.0 / nal_hrd=none / ip_ratio=1.40 / pb_ratio=1.30 / aq=3:0.80
Language : English
Default : Yes
Forced : No
Matrix coefficients : BT.709-5, BT.1361, IEC 61966-2-4 709, SMPTE RP177
Audio #2
ID : 2
Format : AC-3
Format/Info : Audio Coding 3
Mode extension : CM (complete main)
Codec ID : A_AC3
Duration : 1h 46mn
Bit rate mode : Constant
Bit rate : 640 Kbps
Channel(s) : 6 channels
Channel positions : Front: L C R, Side: L R, LFE
Sampling rate : 48.0 KHz
Bit depth : 16 bits
Compression mode : Lossy
Stream size : 487 MiB (3%)
Title : Dub Blu-ray EUR
Language : Russian
Default : Yes
Forced : No
Audio #3
ID : 3
Format : AC-3
Format/Info : Audio Coding 3
Format profile : Dolby Digital
Mode extension : CM (complete main)
Codec ID : A_AC3
Duration : 1h 46mn
Bit rate mode : Constant
Bit rate : 192 Kbps
Channel(s) : 2 channels
Channel positions : Front: L R
Sampling rate : 48.0 KHz
Bit depth : 16 bits
Compression mode : Lossy
Stream size : 146 MiB (1%)
Title : MVO ВидеоСервис
Language : Russian
Default : No
Forced : No
Audio #4
ID : 4
Format : DTS
Format/Info : Digital Theater Systems
Codec ID : A_DTS
Duration : 1h 46mn
Bit rate mode : Constant
Bit rate : 1 510 Kbps
Channel(s) : 6 channels
Channel positions : Front: L C R, Side: L R, LFE
Sampling rate : 48.0 KHz
Bit depth : 24 bits
Compression mode : Lossy
Stream size : 1.12 GiB (8%)
Title : AVO Сербин
Language : Russian
Default : No
Forced : No
Audio #5
ID : 5
Format : DTS
Format/Info : Digital Theater Systems
Codec ID : A_DTS
Duration : 1h 46mn
Bit rate mode : Constant
Bit rate : 1 510 Kbps
Channel(s) : 6 channels
Channel positions : Front: L C R, Side: L R, LFE
Sampling rate : 48.0 KHz
Bit depth : 24 bits
Compression mode : Lossy
Stream size : 1.12 GiB (8%)
Title : AVO Живов
Language : Russian
Default : No
Forced : No
Audio #6
ID : 6
Format : DTS
Format/Info : Digital Theater Systems
Codec ID : A_DTS
Duration : 1h 46mn
Bit rate mode : Constant
Bit rate : 1 510 Kbps
Channel(s) : 6 channels
Channel positions : Front: L C R, Side: L R, LFE
Sampling rate : 48.0 KHz
Bit depth : 24 bits
Compression mode : Lossy
Stream size : 1.12 GiB (8%)
Title : AVO Попов
Language : Russian
Default : No
Forced : No
Audio #7
ID : 7
Format : DTS
Format/Info : Digital Theater Systems
Codec ID : A_DTS
Duration : 1h 46mn
Bit rate mode : Constant
Bit rate : 1 510 Kbps
Channel(s) : 6 channels
Channel positions : Front: L C R, Side: L R, LFE
Sampling rate : 48.0 KHz
Bit depth : 24 bits
Compression mode : Lossy
Stream size : 1.12 GiB (8%)
Title : Eng
Language : English
Default : No
Forced : No
Text #8
ID : 8
Format : UTF-8
Codec ID : S_TEXT/UTF8
Codec ID/Info : UTF-8 Plain Text
Language : Russian
Default : No
Forced : No
Text #9
ID : 9
Format : UTF-8
Codec ID : S_TEXT/UTF8
Codec ID/Info : UTF-8 Plain Text
Language : English
Default : No
Forced : No
Text #10
ID : 10
Format : UTF-8
Codec ID : S_TEXT/UTF8
Codec ID/Info : UTF-8 Plain Text
Title : SDH
Language : English
Default : No
Forced : No
Скриншоты:

Раздача: 24/7
Не забываем говорить спасибо, Вам не сложно, а мне приятно)))
Прошу с раздачи не уходить! Скачал сам, дай и другим скачать!!!
Приятного просмотра)))
[NNM-Club.ru]_Gattaka.1997.x264.BDRip.1080p.mkv.torrent
 Торрент: Платиновая раздача  Зарегистрирован
 
Скачать


 Зарегистрирован:   03 Май 2012 09:14:40
 Размер:   14,8 GB  (
 Рейтинг:   4,9 (Голосов: 110)
 Поблагодарили:   455
 Проверка:   Оформление проверено модератором 03 Май 2012 20:26:28
Как cкачать  ·  Как раздать  ·  Правильно оформить  ·  Поднять ратио!  
ebobr
Стаж: 9 лет 1 мес.
Сообщений: 112
Ratio: 447,598
Раздал: 110,5 TB
100%
russia.gif
"Я не берегу силы на обратный путь".
spacymind
 
Стаж: 10 лет 6 мес.
Сообщений: 134
Ratio: 9,583
100%
Откуда: СПБ
Один из самых любимых фильмов. Очень сильно повлиял на формирование моей личности.
Pioneer2712
Стаж: 8 лет 6 мес.
Сообщений: 125
Ratio: 11,202
100%
ukraine.gif
Еще раз посмотрю с большим удовольствием! Спасибо!
KarelGott
Стаж: 11 лет 10 мес.
Сообщений: 81
Ratio: 1,796
100%
ussr.gif
зачем делают такие узкоэкранные копии? уже и экран FullHD 1920х1080, а все равно вот вам фильм - смотрите через щель :убится ап стену:
black222
Стаж: 10 лет
Сообщений: 17
Ratio: 4,623
100%
качественное кино - это когда после очередного просмотра открывается нечто новое. смотрится захватывающе, как в первый раз.
JohnPotter
Стаж: 8 лет 3 мес.
Сообщений: 13
Ratio: 15,113
100%
Откуда: с Родины
witch.png
ebobr писал(а): Перейти к сообщению
"Я не берегу силы на обратный путь".

так точно суть фильма в этом!
rosdim
Стаж: 6 лет 2 мес.
Сообщений: 311
Ratio: 2,392
100%
ussr.gif
KarelGott писал(а): Перейти к сообщению
зачем делают такие узкоэкранные копии? уже и экран FullHD 1920х1080, а все равно вот вам фильм - смотрите через щель :убится ап стену:

Ну это на вкус и цвет.. Мне так наоборот не нравятся урезанные с боков "полноэкранки". Опять же можно в настройках всё отредактировать.
Mr_Romizz
Стаж: 9 лет
Сообщений: 1592
Ratio: 2,649
92.34%
Откуда: Санкт-Петербург
russia.gif
совершенно потрясающий фильм, вот буквально только что пересмотрел его по MGM HD.
в который раз не могу понять, как такой ах...ый фильм мог провалиться в прокате в США. фильм просто зе бест, а уж про музыку я молчу вообще. 10 из 10. тупая американцы, ничего не соображают вообще. зашёл сказать людям, чтобы качали и смотрели. таких фильмов мало, а этот - просто шедевр, обязательный к просмотру.
я не оставляю сил на обратный путь (с)
Turbohard
Стаж: 8 лет 4 мес.
Сообщений: 365
Ratio: 5,533
Поблагодарили: 1674
100%
Крутяк
iovomod
Стаж: 7 лет 1 мес.
Сообщений: 114
Ratio: 11,671
100%
Очень мотивирует фильм, один из моих любимых фильмов!
yatebyavigu
Стаж: 7 лет 5 мес.
Сообщений: 2
Ratio: 341,996
100%
Спасибо за фильм!)
vespengas

Online
Стаж: 9 лет
Сообщений: 1
Ratio: 6,179
0%
Очень много анализов мочи: кал сдал, мочу сдал, математику не сдал :P
Показать сообщения:   
Начать новую тему   Ответить на тему    Торрент-трекер NNM-Club -> Зарубежное кино -> Зарубежные Фильмы (HD, UHD-LQ) Часовой пояс: GMT + 3
Страница 1 из 1