Классический форум-трекер
canvas not supported
Нас вместе: 4 114 330

Вечер / Evening (2007) HDRip


 
 
RSS
Начать новую тему   Ответить на тему    Торрент-трекер NNM-Club -> Зарубежное кино -> Зарубежные Фильмы (HD*Rip/LQ, DVDRip, SATRip, VHSRip)
Автор Сообщение
calmado ®
Стаж: 8 лет 1 мес.
Сообщений: 738
Ratio: 40,61
Поблагодарили: 75633
100%
Откуда: регион 51
russia.gif
Вечер / Evening (2007) HDRip
«Ее самый большой секрет был ее самым большим даром»

Русское название: Вечер
Оригинальное название: Evening
Производство: США, Германия / Hart-Sharp Entertainment, Twins Financing, MBF Erste Filmproduktiongesellschaft
Год выпуска: 2007
Жанр: драма, мелодрама

Перевод: многоголосый закадровый (профессиональный)
Язык субтитров: русский, английский
Вид субтитров: отдельным файлом (srt)

Режиссер: Лайош Колтаи
Сценарий: Сьюзен Майнот, Майкл Каннингем
Продюсер: Джефф Шарп, Майкл Каннингем, Нина Воларски
Актеры: Клэр Дэйнс, Тони Коллетт, Ванесса Редгрейв, Патрик Уилсон, Хью Дэнси, Наташа Ричардсон, Мэми Гаммер, Айлин Эткинс, Мэрил Стрип, Гленн Клоуз

Описание фильма:
Энн Грант прожила долгую жизнь, в которой были и радости, и горести, но никто не предполагал, что в этой жизни может быть еще и тайна. Только перед смертью Энн рассказывает своим взрослым дочерям о встрече, которая стала для нее единственной и настоящей любовью. Два дня, наполненные страстью молодости и искренностью чувств, все еще живут в ее памяти, как и 50 лет назад, хотя душа ее уже просит покоя.
Энн пытается объяснить детям, что однажды сделанный выбор может причинить и боль, и невыразимую радость, он всегда становится одним из тех знаков судьбы, которые и могут составить грустную и радостную историю нашей жизни.
Дочери в шоке от известия о предстоящей смерти матери, но при этом не забывают и о своих проблемах. Услышат ли они голос судьбы?

Дата мировой премьеры: 9 июня 2007
Дата российской премьеры: 30 августа 2007, «Парадиз»

Ограничения по возрасту: 16+
Рейтинг MPAA: PG-13 (детям до 13 лет просмотр не желателен)



Релиз от: HQ-ViDEO

Продолжительность: 01:57:03

Качество видео: HDRip
Контейнер: AVI
Видеокодек: XviD
Битрейт видео: ~1884 kbps
Размер кадра: 720 x 304

Аудио 1: AC3, 6 ch, 384 kbps, 48 kHz (русский)
Аудио 2: AC3, 6 ch, 384 kbps, 48 kHz (английский)

    • Ванесса Рэдгрейв и Наташа Ричардсон играют в картине мать и дочь, являясь матерью и дочерью в реальной жизни.
    • Меми Гаммер исполнила роль героини Мэрил Стрип в молодости. В реальной жизни Меми — дочь Стрип.
    • На роль молодой Энн Грант прочили Киру Найтли, однако актриса не смогла принять участие в картине из-за занятости на съемках триквела «Пиратов Карибского моря» и «Искупления».
Код:

Общее
Полное имя                               : Vecher.2007.DUAL.HDRip.avi
Формат                                   : AVI
Формат/Информация                        : Audio Video Interleave
Профиль формата                          : OpenDML
Размер файла                             : 2,18 Гбайт
Продолжительность                        : 1 ч. 57 м.
Общий поток                              : 2670 Кбит/сек
Программа кодирования                    : VirtualDubMod 1.5.10.2 (build 2542/release)
Библиотека кодирования                   : VirtualDubMod build 2542/release

Видео
Идентификатор                            : 0
Формат                                   : MPEG-4 Visual
Профиль формата                          : Advanced Simple@L5
Параметр BVOP формата                    : 2
Параметр QPel формата                    : Нет
Параметр GMC формата                     : Без точки перехода
Параметр матрицы формата                 : Default (H.263)
Идентификатор кодека                     : XVID
Идентификатор кодека/Подсказка           : XviD
Продолжительность                        : 1 ч. 57 м.
Битрейт                                  : 1884 Кбит/сек
Ширина                                   : 720 пикселей
Высота                                   : 304 пикселя
Соотношение сторон                       : 2,35:1
Частота кадров                           : 23,976 кадра/сек
Цветовое пространство                    : YUV
Субдискретизация насыщенности            : 4:2:0
Битовая глубина                          : 8 бит
Тип развёртки                            : Прогрессивная
Метод сжатия                             : С потерями
Бит/(Пиксели*Кадры)                      : 0.359
Размер потока                            : 1,54 Гбайт (71%)
Библиотека кодирования                   : XviD 1.2.1 (UTC 2008-12-04)

Аудио #1
Идентификатор                            : 1
Формат                                   : AC-3
Формат/Информация                        : Audio Coding 3
Расширение режима                        : CM (complete main)
Параметр Endianness формата              : Big
Идентификатор кодека                     : 2000
Продолжительность                        : 1 ч. 56 м.
Вид битрейта                             : Постоянный
Битрейт                                  : 384 Кбит/сек
Каналы                                   : 6 каналов
Расположение каналов                     : Front: L C R, Side: L R, LFE
Частота                                  : 48,0 КГц
Битовая глубина                          : 16 бит
Метод сжатия                             : С потерями
Размер потока                            : 321 Мбайт (14%)
Выравнивание                             : Разделение по промежуткам
Продолжительность промежутка             : 42  мс. (1,00 видеокадр)
Время предзагрузки промежутка            : 500  мс.

Аудио #2
Идентификатор                            : 2
Формат                                   : AC-3
Формат/Информация                        : Audio Coding 3
Расширение режима                        : CM (complete main)
Параметр Endianness формата              : Big
Идентификатор кодека                     : 2000
Продолжительность                        : 1 ч. 57 м.
Вид битрейта                             : Постоянный
Битрейт                                  : 384 Кбит/сек
Каналы                                   : 6 каналов
Расположение каналов                     : Front: L C R, Side: L R, LFE
Частота                                  : 48,0 КГц
Битовая глубина                          : 16 бит
Метод сжатия                             : С потерями
Размер потока                            : 322 Мбайт (14%)
Выравнивание                             : Разделение по промежуткам
Продолжительность промежутка             : 42  мс. (1,00 видеокадр)
Время предзагрузки промежутка            : 500  мс.

Скриншоты:




Время раздачи: с 09:00 до 24:00 до 10 скачавших и далее по возможности
[NNM-Club.ru]_Vecher.2007.DUAL.HDRip.torrent
 Торрент: Платиновая раздача  Зарегистрирован
 
Скачать


Примагнититься
 Зарегистрирован:   25 Сен 2012 09:29:42
 Размер:   2,18 GB  (
 Рейтинг:   4,8 (Голосов: 15)
 Поблагодарили:   73
 Проверка:   Оформление проверено модератором 25 Сен 2012 11:54:00
Как cкачать  ·  Как раздать  ·  Правильно оформить  ·  Поднять ратио!  
mr.Bonc
Стаж: 9 лет 2 мес.
Сообщений: 18
Ratio: 2,668
25%
Откуда: г ХМЕЛЬНИЦКИЙ
ukraine.gif
как фильм кто смотрел
lubimaua0000
Стаж: 2 года 8 мес.
Сообщений: 1
Ratio: 7,477
0%
Фильм замечательный, если вы любите про отношения, непростые решения. психологическая драма, где есть над чем подумать.
Показать сообщения:   
Начать новую тему   Ответить на тему    Торрент-трекер NNM-Club -> Зарубежное кино -> Зарубежные Фильмы (HD*Rip/LQ, DVDRip, SATRip, VHSRip) Часовой пояс: GMT + 3
Страница 1 из 1