Классический форум-трекер
canvas not supported
Нас вместе: 4 235 219

Джон Картер / John Carter (2012) BDRip [576p] iPad


 
 
RSS
Начать новую тему   Ответить на тему    Торрент-трекер NNM-Club -> Аудио и Видео -> Зарубежное видео для устройств Apple
Автор Сообщение
shax87 ®
Стаж: 13 лет 3 мес.
Сообщений: 215
Ratio: 446.069
Раздал: 25.16 TB
Поблагодарили: 18023
100%
Откуда: Санкт-Петербург
russia.gif
Джон Картер / John Carter (2012) BDRip [576p] iPad
Русское название: Джон Картер
Оригинальное название: John Carter
Год: 2012
Страна: США
Жанр: фантастика, фэнтези, боевик, приключения

Продолжительность: 02:12:01
Перевод: Профессиональный дублированный
Оригинальная аудиодорожка: английская
Субтитры: нет
Навигация по главам: есть

Режиссёр: Эндрю Стэнтон
Сценарий: Эндрю Стэнтон, Марк Эндрюс, Майкл Чабон
В ролях: Тейлор Китч, Линн Коллинс, Марк Стронг, Доминик Уэст, Джеймс Пьюрфой, Брайан Крэнстон, Дэрил Сабара, Аманда Клэйтон, Киаран Хайндс, Николас Вудесон

Описание: Ветеран Гражданской войны в США Джон Картер против своей воли оказывается на Марсе, где попадает в плен к воинственным четырехметровым туземцам. Картеру предстоит не только спастись самому, но и спасти принцессу Дею Торис из Гелиума.



Качество видео: BDRip
Исходник: Blu-ray disc
Формат: MP4 (контейнер m4v)
Видео: AVC, 1024x424 (2.40:1) at 23.976 fps, AVC at 2371 kbps avg, 0.228 bit/pixel
Аудио: 48 kHz, AAC, 2ch, 128 Kbps | Russian | Дублированный
Аудио: 48 kHz, AAC, 2ch, 128 Kbps | Ukrainian | Дублированный
Аудио: 48 kHz, AAC, 2ch, 128 Kbps | English | Original
Общее
Полное имя : F:\Downloads\JOHN_CARTER\John Carter.2012.BDRip.iPad.m4v
Формат : MPEG-4
Профиль формата : Base Media / Version 2
Идентификатор кодека : mp42
Размер файла : 2,56 Гбайт
Продолжительность : 2 ч. 12 м.
Режим общего битрейта : Переменный
Общий поток : 2773 Кбит/сек
Название фильма : Джон Картер / John Carter
Исполнитель : Эндрю Стэнтон
Жанр : фантастика, фэнтези, боевик, приключения
Дата записи : UTC 2012-02-22 07:00:00
Дата кодирования : UTC 2013-04-03 08:08:45
Дата пометки : UTC 2013-04-03 20:34:21
Программа кодирования : HandBrake 0.9.8 2012071700

Видео
Идентификатор : 1
Формат : AVC
Формат/Информация : Advanced Video Codec
Профиль формата : High@L3.1
Параметр CABAC формата : Да
Параметр ReFrames формата : 8 кадров
Идентификатор кодека : avc1
Идентификатор кодека/Информация : Advanced Video Coding
Продолжительность : 2 ч. 12 м.
Вид битрейта : Переменный
Битрейт : 2371 Кбит/сек
Ширина : 1024 пикселя
Высота : 424 пикселя
Соотношение сторон : 2,40:1
Режим частоты кадров : Переменный
Частота кадров : 23,976 кадра/сек
Минимальная частота кадров : 23,974 кадра/сек
Максимальная частота кадров : 23,981 кадра/сек
Цветовое пространство : YUV
Субдискретизация насыщенности : 4:2:0
Битовая глубина : 8 бит
Тип развёртки : Прогрессивная
Бит/(Пиксели*Кадры) : 0.228
Размер потока : 2,19 Гбайт (86%)
Библиотека кодирования : x264 core 120
Настройки программы : cabac=1 / ref=9 / deblock=1:-1:-1 / analyse=0x3:0x133 / me=umh / subme=9 / psy=1 / psy_rd=1.00:0.15 / mixed_ref=1 / me_range=32 / chroma_me=1 / trellis=2 / 8x8dct=1 / cqm=0 / deadzone=21,11 / fast_pskip=1 / chroma_qp_offset=-3 / threads=6 / sliced_threads=0 / nr=0 / decimate=1 / interlaced=0 / bluray_compat=0 / constrained_intra=0 / bframes=9 / b_pyramid=1 / b_adapt=2 / b_bias=0 / direct=1 / weightb=1 / open_gop=0 / weightp=2 / keyint=240 / keyint_min=24 / scenecut=40 / intra_refresh=0 / rc_lookahead=40 / rc=crf / mbtree=1 / crf=18.0 / qcomp=0.60 / qpmin=3 / qpmax=69 / qpstep=4 / ip_ratio=1.40 / aq=1:0.90
Дата кодирования : UTC 2013-04-03 08:08:45
Дата пометки : UTC 2013-04-03 12:27:43
Основные цвета : BT.709
Характеристики трансфера : BT.709
Коэффициенты матрицы : BT.709

Аудио #1
Идентификатор : 2
Формат : AAC
Формат/Информация : Advanced Audio Codec
Профиль формата : LC
Идентификатор кодека : 40
Продолжительность : 2 ч. 12 м.
Вид битрейта : Переменный
Битрейт : 128 Кбит/сек
Максимальный битрейт : 202 Кбит/сек
Каналы : 2 канала
Расположение каналов : Front: L R
Частота : 48,0 КГц
Метод сжатия : С потерями
Задержка видео : 83 мс.
Размер потока : 121 Мбайт (5%)
Язык : Russian
Дата кодирования : UTC 2013-04-03 08:08:45
Дата пометки : UTC 2013-04-03 12:27:42

Аудио #2
Идентификатор : 3
Формат : AAC
Формат/Информация : Advanced Audio Codec
Профиль формата : LC
Идентификатор кодека : 40
Продолжительность : 2 ч. 12 м.
Вид битрейта : Переменный
Битрейт : 128 Кбит/сек
Максимальный битрейт : 202 Кбит/сек
Каналы : 2 канала
Расположение каналов : Front: L R
Частота : 48,0 КГц
Метод сжатия : С потерями
Задержка видео : 83 мс.
Размер потока : 121 Мбайт (5%)
Язык : Ukrainian
Дата кодирования : UTC 2013-04-03 08:08:45
Дата пометки : UTC 2013-04-03 12:27:42

Аудио #3
Идентификатор : 4
Формат : AAC
Формат/Информация : Advanced Audio Codec
Профиль формата : LC
Идентификатор кодека : 40
Продолжительность : 2 ч. 12 м.
Вид битрейта : Переменный
Битрейт : 128 Кбит/сек
Максимальный битрейт : 201 Кбит/сек
Каналы : 2 канала
Расположение каналов : Front: L R
Частота : 48,0 КГц
Метод сжатия : С потерями
Задержка видео : 83 мс.
Размер потока : 121 Мбайт (5%)
Язык : English
Дата кодирования : UTC 2013-04-03 08:08:45
Дата пометки : UTC 2013-04-03 12:27:42

Текст
Идентификатор : 7
Формат : Apple text
Идентификатор кодека : text
Продолжительность : 2 ч. 12 м.
Вид битрейта : Переменный
Битрейт : 0 бит/сек
Задержка видео : 83 мс.
Размер потока : 375 байт (0%)
Дата кодирования : UTC 2013-04-03 20:34:21
Дата пометки : UTC 2013-04-03 20:34:21
x264 [info]: frame I:1849 Avg QP:14.86 size:102048
x264 [info]: frame P:41663 Avg QP:18.41 size: 28397
x264 [info]: frame B:146419 Avg QP:21.68 size: 6666
x264 [info]: consecutive B-frames: 2.4% 2.1% 8.1% 23.0% 20.1% 33.9% 5.7% 1.8% 1.8% 1.1%
x264 [info]: mb I I16..4: 11.0% 59.2% 29.8%
x264 [info]: mb P I16..4: 1.6% 12.0% 2.5% P16..4: 37.5% 19.0% 16.5% 2.7% 1.1% skip: 7.2%
x264 [info]: mb B I16..4: 0.1% 1.2% 0.3% B16..8: 40.0% 9.0% 3.0% direct: 5.3% skip:41.2% L0:41.5% L1:44.4% BI:14.1%
x264 [info]: 8x8 transform intra:72.5% inter:56.9%
x264 [info]: coded y,uvDC,uvAC intra: 88.6% 86.6% 65.7% inter: 24.3% 22.1% 5.1%
x264 [info]: i16 v,h,dc,p: 22% 15% 20% 43%
x264 [info]: i8 v,h,dc,ddl,ddr,vr,hd,vl,hu: 13% 9% 6% 9% 14% 13% 13% 11% 13%
x264 [info]: i4 v,h,dc,ddl,ddr,vr,hd,vl,hu: 12% 8% 4% 9% 15% 13% 14% 11% 14%
x264 [info]: i8c dc,h,v,p: 43% 22% 17% 17%
x264 [info]: Weighted P-Frames: Y:4.9% UV:2.8%
x264 [info]: ref P L0: 57.5% 14.2% 13.2% 5.7% 3.6% 2.5% 1.9% 1.2% 0.1% 0.0%
x264 [info]: ref B L0: 84.2% 8.1% 3.8% 1.6% 1.1% 0.8% 0.4%
x264 [info]: ref B L1: 93.2% 6.8%
x264 [info]: kb/s:2371.08
Скриншоты:

Время раздачи: 24/7
[NNM-Club.ru]_John Carter.2012.BDRip.iPad.m4v.torrent
 Торрент: Платиновая раздача  Зарегистрирован
 
Скачать


 Зарегистрирован:   03 Апр 2013 23:53:39
 Размер:   2.56 GB  (
 Рейтинг:   4.7 (Голосов: 59)
 Поблагодарили:   187
 Проверка:   Оформление проверено модератором 04 Апр 2013 10:06:52
Как cкачать  ·  Как раздать  ·  Правильно оформить  ·  Поднять ратио!  
setriy
Стаж: 13 лет 3 мес.
Сообщений: 393
Ratio: 14.059
Раздал: 2.465 TB
100%
Откуда: Россия
russia.gif
Раздавайте...
Показать сообщения:   
Начать новую тему   Ответить на тему    Торрент-трекер NNM-Club -> Аудио и Видео -> Зарубежное видео для устройств Apple Часовой пояс: GMT + 3
Страница 1 из 1