Классический форум-трекер
canvas not supported
Нас вместе: 4 165 223

Григорий Лепс - Второй. Песни Владимира Высоцкого (2007) [ALAC|Tracks]<Chanson, Pop>


 
 
RSS
Начать новую тему   Ответить на тему    Торрент-трекер NNM-Club -> Аудио и Видео -> Музыка Lossless (ALAC)
Автор Сообщение
Cecidit ®
Стаж: 7 лет 8 мес.
Сообщений: 129
Ratio: 39.772
Поблагодарили: 8803
100%
Откуда: Москва, МО Щелково
russia.gif
Григорий Лепс - Второй. Песни Владимира Высоцкого (2007)
Год: 2007
Жанр: Chanson, Pop
Продолжительность: 00:39:56

Кодек: ALAC
Битрейт: Lossless
Тип раздачи: Tracks
Обложки: Вшиты
Кодирование: CUETools + iTunes

"Второй" — второй по счёту альбом песен Владимира Высоцкого в исполнении Григория Лепса, записанный и вышедший в 2007 году.

Треклист:
01. Райские яблоки
02. Певец у микрофона
03. Человек за бортом
04. Горизонт
05. Песня самолета-истребителя
06. Братские могилы
07. Разбойничья
08. Был развеселый розовый восход
09. Баллада о борьбе
Код:

Общее
Полное имя                               : /Users/Denis/Library/Containers/net.mediaarea.mediainfo.mac/Data/Music/iTunes/iTunes Media/Music/Григорий Лепс/Второй. Песни Владимира Высоцкого/01 Райские яблоки.m4a
Формат                                   : MPEG-4
Профиль формата                          : Apple audio with iTunes info
Идентификатор кодека                     : M4A
Размер файла                             : 34,6 Мбайт
Продолжительность                        : 4 м. 40 с.
Режим общего битрейта                    : Переменный
Общий поток                              : 1035 Кбит/сек
Альбом                                   : Второй. Песни Владимира Высоцкого
Альбом/Исполнитель                       : Григорий Лепс
Трек                                     : Райские яблоки
Трек/Положение                           : 1
Трек/Всего                               : 9
Исполнитель                              : Григорий Лепс
Жанр                                     : Chanson, Pop
Дата записи                              : 2007
Дата кодирования                         : UTC 2014-06-06 21:26:48
Дата пометки                             : UTC 2014-06-07 01:34:56
Программа кодирования                    : CUETools 2.1.5
Обложка                                  : Yes
Примечание                               : ExactAudioCopy v0.95b3
CTDBDISCCONFIDENCE                       : 1/1
CTDBTRACKCONFIDENCE                      : 1/1
CDTOC                                    : 9+96+52C1+A7C2+EC42+133DC+176CC+1A613+20900+265D7+2BEC7

Аудио
Идентификатор                            : 1
Формат                                   : ALAC
Идентификатор кодека                     : alac
Идентификатор кодека/Информация          : Apple Lossless Audio Codec
Продолжительность                        : 4 м. 40 с.
Duration_LastFrame                       : -30 мс.
Вид битрейта                             : Переменный
Битрейт                                  : 1020 Кбит/сек
Каналы                                   : 2 канала
Частота                                  : 44,1 КГц
Битовая глубина                          : 16 бит
Размер потока                            : 34,1 Мбайт (99%)
Дата кодирования                         : UTC 2014-06-06 21:26:48
Дата пометки                             : UTC 2014-06-07 01:34:56

Общее
Полное имя                               : /Users/Denis/Library/Containers/net.mediaarea.mediainfo.mac/Data/Music/iTunes/iTunes Media/Music/Григорий Лепс/Второй. Песни Владимира Высоцкого/02 Певец у микрофона.m4a
Формат                                   : MPEG-4
Профиль формата                          : Apple audio with iTunes info
Идентификатор кодека                     : M4A
Размер файла                             : 35,0 Мбайт
Продолжительность                        : 4 м. 50 с.
Режим общего битрейта                    : Переменный
Общий поток                              : 1012 Кбит/сек
Альбом                                   : Второй. Песни Владимира Высоцкого
Альбом/Исполнитель                       : Григорий Лепс
Трек                                     : Певец у микрофона
Трек/Положение                           : 2
Трек/Всего                               : 9
Исполнитель                              : Григорий Лепс
Жанр                                     : Chanson, Pop
Дата записи                              : 2007
Дата кодирования                         : UTC 2014-06-06 21:27:14
Дата пометки                             : UTC 2014-06-07 01:34:58
Программа кодирования                    : CUETools 2.1.5
Обложка                                  : Yes
Примечание                               : ExactAudioCopy v0.95b3
CTDBDISCCONFIDENCE                       : 1/1
CTDBTRACKCONFIDENCE                      : 1/1
CDTOC                                    : 9+96+52C1+A7C2+EC42+133DC+176CC+1A613+20900+265D7+2BEC7

Аудио
Идентификатор                            : 1
Формат                                   : ALAC
Идентификатор кодека                     : alac
Идентификатор кодека/Информация          : Apple Lossless Audio Codec
Продолжительность                        : 4 м. 50 с.
Duration_LastFrame                       : -10 мс.
Вид битрейта                             : Переменный
Битрейт                                  : 997 Кбит/сек
Каналы                                   : 2 канала
Частота                                  : 44,1 КГц
Битовая глубина                          : 16 бит
Размер потока                            : 34,5 Мбайт (99%)
Дата кодирования                         : UTC 2014-06-06 21:27:14
Дата пометки                             : UTC 2014-06-07 01:34:58

Общее
Полное имя                               : /Users/Denis/Library/Containers/net.mediaarea.mediainfo.mac/Data/Music/iTunes/iTunes Media/Music/Григорий Лепс/Второй. Песни Владимира Высоцкого/03 Человек за бортом.m4a
Формат                                   : MPEG-4
Профиль формата                          : Apple audio with iTunes info
Идентификатор кодека                     : M4A
Размер файла                             : 29,0 Мбайт
Продолжительность                        : 3 м. 53 с.
Режим общего битрейта                    : Переменный
Общий поток                              : 1040 Кбит/сек
Альбом                                   : Второй. Песни Владимира Высоцкого
Альбом/Исполнитель                       : Григорий Лепс
Трек                                     : Человек за бортом
Трек/Положение                           : 3
Трек/Всего                               : 9
Исполнитель                              : Григорий Лепс
Жанр                                     : Chanson, Pop
Дата записи                              : 2007
Дата кодирования                         : UTC 2014-06-06 21:27:37
Дата пометки                             : UTC 2014-06-07 01:35:01
Программа кодирования                    : CUETools 2.1.5
Обложка                                  : Yes
Примечание                               : ExactAudioCopy v0.95b3
CTDBDISCCONFIDENCE                       : 1/1
CTDBTRACKCONFIDENCE                      : 1/1
CDTOC                                    : 9+96+52C1+A7C2+EC42+133DC+176CC+1A613+20900+265D7+2BEC7

Аудио
Идентификатор                            : 1
Формат                                   : ALAC
Идентификатор кодека                     : alac
Идентификатор кодека/Информация          : Apple Lossless Audio Codec
Продолжительность                        : 3 м. 53 с.
Duration_LastFrame                       : -58 мс.
Вид битрейта                             : Переменный
Битрейт                                  : 1021 Кбит/сек
Каналы                                   : 2 канала
Частота                                  : 44,1 КГц
Битовая глубина                          : 16 бит
Размер потока                            : 28,5 Мбайт (98%)
Дата кодирования                         : UTC 2014-06-06 21:27:37
Дата пометки                             : UTC 2014-06-07 01:35:01

Общее
Полное имя                               : /Users/Denis/Library/Containers/net.mediaarea.mediainfo.mac/Data/Music/iTunes/iTunes Media/Music/Григорий Лепс/Второй. Песни Владимира Высоцкого/04 Горизонт.m4a
Формат                                   : MPEG-4
Профиль формата                          : Apple audio with iTunes info
Идентификатор кодека                     : M4A
Размер файла                             : 30,1 Мбайт
Продолжительность                        : 4 м. 4 с.
Режим общего битрейта                    : Переменный
Общий поток                              : 1032 Кбит/сек
Альбом                                   : Второй. Песни Владимира Высоцкого
Альбом/Исполнитель                       : Григорий Лепс
Трек                                     : Горизонт
Трек/Положение                           : 4
Трек/Всего                               : 9
Исполнитель                              : Григорий Лепс
Жанр                                     : Chanson, Pop
Дата записи                              : 2007
Дата кодирования                         : UTC 2014-06-06 21:28:01
Дата пометки                             : UTC 2014-06-07 01:35:03
Программа кодирования                    : CUETools 2.1.5
Обложка                                  : Yes
Примечание                               : ExactAudioCopy v0.95b3
CTDBDISCCONFIDENCE                       : 1/1
CTDBTRACKCONFIDENCE                      : 1/1
CDTOC                                    : 9+96+52C1+A7C2+EC42+133DC+176CC+1A613+20900+265D7+2BEC7

Аудио
Идентификатор                            : 1
Формат                                   : ALAC
Идентификатор кодека                     : alac
Идентификатор кодека/Информация          : Apple Lossless Audio Codec
Продолжительность                        : 4 м. 4 с.
Duration_LastFrame                       : -60 мс.
Вид битрейта                             : Переменный
Битрейт                                  : 1015 Кбит/сек
Каналы                                   : 2 канала
Частота                                  : 44,1 КГц
Битовая глубина                          : 16 бит
Размер потока                            : 29,6 Мбайт (98%)
Дата кодирования                         : UTC 2014-06-06 21:28:01
Дата пометки                             : UTC 2014-06-07 01:35:03

Общее
Полное имя                               : /Users/Denis/Library/Containers/net.mediaarea.mediainfo.mac/Data/Music/iTunes/iTunes Media/Music/Григорий Лепс/Второй. Песни Владимира Высоцкого/05 Песня самолета истребителя.m4a
Формат                                   : MPEG-4
Профиль формата                          : Apple audio with iTunes info
Идентификатор кодека                     : M4A
Размер файла                             : 28,2 Мбайт
Продолжительность                        : 3 м. 48 с.
Режим общего битрейта                    : Переменный
Общий поток                              : 1036 Кбит/сек
Альбом                                   : Второй. Песни Владимира Высоцкого
Альбом/Исполнитель                       : Григорий Лепс
Трек                                     : Песня самолета истребителя
Трек/Положение                           : 5
Трек/Всего                               : 9
Исполнитель                              : Григорий Лепс
Жанр                                     : Chanson, Pop
Дата записи                              : 2007
Дата кодирования                         : UTC 2014-06-06 21:28:25
Дата пометки                             : UTC 2014-06-07 01:35:05
Программа кодирования                    : CUETools 2.1.5
Обложка                                  : Yes
Примечание                               : ExactAudioCopy v0.95b3
CTDBDISCCONFIDENCE                       : 1/1
CTDBTRACKCONFIDENCE                      : 1/1
CDTOC                                    : 9+96+52C1+A7C2+EC42+133DC+176CC+1A613+20900+265D7+2BEC7

Аудио
Идентификатор                            : 1
Формат                                   : ALAC
Идентификатор кодека                     : alac
Идентификатор кодека/Информация          : Apple Lossless Audio Codec
Продолжительность                        : 3 м. 48 с.
Duration_LastFrame                       : -4 мс.
Вид битрейта                             : Переменный
Битрейт                                  : 1017 Кбит/сек
Каналы                                   : 2 канала
Частота                                  : 44,1 КГц
Битовая глубина                          : 16 бит
Размер потока                            : 27,7 Мбайт (98%)
Дата кодирования                         : UTC 2014-06-06 21:28:25
Дата пометки                             : UTC 2014-06-07 01:35:05

Общее
Полное имя                               : /Users/Denis/Library/Containers/net.mediaarea.mediainfo.mac/Data/Music/iTunes/iTunes Media/Music/Григорий Лепс/Второй. Песни Владимира Высоцкого/06 Братские могилы.m4a
Формат                                   : MPEG-4
Профиль формата                          : Apple audio with iTunes info
Идентификатор кодека                     : M4A
Размер файла                             : 17,8 Мбайт
Продолжительность                        : 2 м. 41 с.
Режим общего битрейта                    : Переменный
Общий поток                              : 925 Кбит/сек
Альбом                                   : Второй. Песни Владимира Высоцкого
Альбом/Исполнитель                       : Григорий Лепс
Трек                                     : Братские могилы
Трек/Положение                           : 6
Трек/Всего                               : 9
Исполнитель                              : Григорий Лепс
Жанр                                     : Chanson, Pop
Дата записи                              : 2007
Дата кодирования                         : UTC 2014-06-06 21:28:40
Дата пометки                             : UTC 2014-06-07 01:35:06
Программа кодирования                    : CUETools 2.1.5
Обложка                                  : Yes
Примечание                               : ExactAudioCopy v0.95b3
CTDBDISCCONFIDENCE                       : 1/1
CTDBTRACKCONFIDENCE                      : 1/1
CDTOC                                    : 9+96+52C1+A7C2+EC42+133DC+176CC+1A613+20900+265D7+2BEC7

Аудио
Идентификатор                            : 1
Формат                                   : ALAC
Идентификатор кодека                     : alac
Идентификатор кодека/Информация          : Apple Lossless Audio Codec
Продолжительность                        : 2 м. 41 с.
Duration_LastFrame                       : -52 мс.
Вид битрейта                             : Переменный
Битрейт                                  : 899 Кбит/сек
Каналы                                   : 2 канала
Частота                                  : 44,1 КГц
Битовая глубина                          : 16 бит
Размер потока                            : 17,3 Мбайт (97%)
Дата кодирования                         : UTC 2014-06-06 21:28:40
Дата пометки                             : UTC 2014-06-07 01:35:06

Общее
Полное имя                               : /Users/Denis/Library/Containers/net.mediaarea.mediainfo.mac/Data/Music/iTunes/iTunes Media/Music/Григорий Лепс/Второй. Песни Владимира Высоцкого/07 Разбойничья.m4a
Формат                                   : MPEG-4
Профиль формата                          : Apple audio with iTunes info
Идентификатор кодека                     : M4A
Размер файла                             : 37,6 Мбайт
Продолжительность                        : 5 м. 37 с.
Режим общего битрейта                    : Переменный
Общий поток                              : 934 Кбит/сек
Альбом                                   : Второй. Песни Владимира Высоцкого
Альбом/Исполнитель                       : Григорий Лепс
Трек                                     : Разбойничья
Трек/Положение                           : 7
Трек/Всего                               : 9
Исполнитель                              : Григорий Лепс
Жанр                                     : Chanson, Pop
Дата записи                              : 2007
Дата кодирования                         : UTC 2014-06-06 21:29:12
Дата пометки                             : UTC 2014-06-07 01:35:09
Программа кодирования                    : CUETools 2.1.5
Обложка                                  : Yes
Примечание                               : ExactAudioCopy v0.95b3
CTDBDISCCONFIDENCE                       : 1/1
CTDBTRACKCONFIDENCE                      : 1/1
CDTOC                                    : 9+96+52C1+A7C2+EC42+133DC+176CC+1A613+20900+265D7+2BEC7

Аудио
Идентификатор                            : 1
Формат                                   : ALAC
Идентификатор кодека                     : alac
Идентификатор кодека/Информация          : Apple Lossless Audio Codec
Продолжительность                        : 5 м. 37 с.
Duration_LastFrame                       : -44 мс.
Вид битрейта                             : Переменный
Битрейт                                  : 921 Кбит/сек
Каналы                                   : 2 канала
Частота                                  : 44,1 КГц
Битовая глубина                          : 16 бит
Размер потока                            : 37,1 Мбайт (99%)
Дата кодирования                         : UTC 2014-06-06 21:29:12
Дата пометки                             : UTC 2014-06-07 01:35:09

Общее
Полное имя                               : /Users/Denis/Library/Containers/net.mediaarea.mediainfo.mac/Data/Music/iTunes/iTunes Media/Music/Григорий Лепс/Второй. Песни Владимира Высоцкого/08 Был развеселый розовый восход.m4a
Формат                                   : MPEG-4
Профиль формата                          : Apple audio with iTunes info
Идентификатор кодека                     : M4A
Размер файла                             : 36,8 Мбайт
Продолжительность                        : 5 м. 16 с.
Режим общего битрейта                    : Переменный
Общий поток                              : 975 Кбит/сек
Альбом                                   : Второй. Песни Владимира Высоцкого
Альбом/Исполнитель                       : Григорий Лепс
Трек                                     : Был развеселый розовый восход
Трек/Положение                           : 8
Трек/Всего                               : 9
Исполнитель                              : Григорий Лепс
Жанр                                     : Chanson, Pop
Дата записи                              : 2007
Дата кодирования                         : UTC 2014-06-06 21:29:43
Дата пометки                             : UTC 2014-06-07 01:35:12
Программа кодирования                    : CUETools 2.1.5
Обложка                                  : Yes
Примечание                               : ExactAudioCopy v0.95b3
CTDBDISCCONFIDENCE                       : 1/1
CTDBTRACKCONFIDENCE                      : 1/1
CDTOC                                    : 9+96+52C1+A7C2+EC42+133DC+176CC+1A613+20900+265D7+2BEC7

Аудио
Идентификатор                            : 1
Формат                                   : ALAC
Идентификатор кодека                     : alac
Идентификатор кодека/Информация          : Apple Lossless Audio Codec
Продолжительность                        : 5 м. 16 с.
Duration_LastFrame                       : -13 мс.
Вид битрейта                             : Переменный
Битрейт                                  : 961 Кбит/сек
Каналы                                   : 2 канала
Частота                                  : 44,1 КГц
Битовая глубина                          : 16 бит
Размер потока                            : 36,3 Мбайт (99%)
Дата кодирования                         : UTC 2014-06-06 21:29:43
Дата пометки                             : UTC 2014-06-07 01:35:12

Общее
Полное имя                               : /Users/Denis/Library/Containers/net.mediaarea.mediainfo.mac/Data/Music/iTunes/iTunes Media/Music/Григорий Лепс/Второй. Песни Владимира Высоцкого/09 Баллада о борьбе.m4a
Формат                                   : MPEG-4
Профиль формата                          : Apple audio with iTunes info
Идентификатор кодека                     : M4A
Размер файла                             : 36,4 Мбайт
Продолжительность                        : 5 м. 3 с.
Режим общего битрейта                    : Переменный
Общий поток                              : 1007 Кбит/сек
Альбом                                   : Второй. Песни Владимира Высоцкого
Альбом/Исполнитель                       : Григорий Лепс
Трек                                     : Баллада о борьбе
Трек/Положение                           : 9
Трек/Всего                               : 9
Исполнитель                              : Григорий Лепс
Жанр                                     : Chanson, Pop
Дата записи                              : 2007
Дата кодирования                         : UTC 2014-06-06 21:30:13
Дата пометки                             : UTC 2014-06-07 01:35:15
Программа кодирования                    : CUETools 2.1.5
Обложка                                  : Yes
Примечание                               : ExactAudioCopy v0.95b3
CTDBDISCCONFIDENCE                       : 1/1
CTDBTRACKCONFIDENCE                      : 1/1
CDTOC                                    : 9+96+52C1+A7C2+EC42+133DC+176CC+1A613+20900+265D7+2BEC7

Аудио
Идентификатор                            : 1
Формат                                   : ALAC
Идентификатор кодека                     : alac
Идентификатор кодека/Информация          : Apple Lossless Audio Codec
Продолжительность                        : 5 м. 3 с.
Duration_LastFrame                       : -51 мс.
Вид битрейта                             : Переменный
Битрейт                                  : 993 Кбит/сек
Каналы                                   : 2 канала
Частота                                  : 44,1 КГц
Битовая глубина                          : 16 бит
Размер потока                            : 35,9 Мбайт (99%)
Дата кодирования                         : UTC 2014-06-06 21:30:13
Дата пометки                             : UTC 2014-06-07 01:35:15
Код:

-----------------------

DON'T MODIFY THIS FILE

-----------------------

PERFORMER: auCDtect Task Manager, ver. 1.6.0 RC1 build 1.6.0.1
Copyright (c) 2008-2010 y-soft. All rights reserved
http://y-soft.org

ANALYZER: auCDtect: CD records authenticity detector, version 0.8.2
Copyright (c) 2004 Oleg Berngardt. All rights reserved.
Copyright (c) 2004 Alexander Djourik. All rights reserved.

FILE: 09 Баллада о борьбе.m4a
  Size: 38213192 Hash: 67DAB474F80E488E293508C4454A1D73 Accuracy: -m8
  Conclusion: CDDA 100%
  Signature: D1C84C19102429FD1F9060F9CD1E6B5BED798AB1
FILE: 08 Был развеселый розовый восход.m4a
  Size: 38614538 Hash: 189E27E891E46326A61060F3D0684C32 Accuracy: -m8
  Conclusion: CDDA 100%
  Signature: FD2625364AEFD00E47F7229E87C70432C53A4C95
FILE: 07 Разбойничья.m4a
  Size: 39417119 Hash: AA1ACDCBC1DC488DBE368270408AB80B Accuracy: -m8
  Conclusion: CDDA 100%
  Signature: FE900E27CA63666082F36C18F9E4B0DF16F54349
FILE: 06 Братские могилы.m4a
  Size: 18658854 Hash: 310656FAF291C2CE5B1D64DFC9B94C6A Accuracy: -m0
  Conclusion: CDDA 99%
  Signature: 559EFFFD9E4A942E584D35C6F7782CA7200B3531
FILE: 05 Песня самолета истребителя.m4a
  Size: 29588470 Hash: 02A4B486C84D26F77F08181E9753059E Accuracy: -m0
  Conclusion: CDDA 100%
  Signature: 4F64A540475A12A42980FA5A25DE37DD51564392
FILE: 04 Горизонт.m4a
  Size: 31536243 Hash: 61E25EF47641F9227D5A520C25F2DB95 Accuracy: -m8
  Conclusion: CDDA 100%
  Signature: 433FD032176BC98F40C3C7689ED113EFF5624044
FILE: 03 Человек за бортом.m4a
  Size: 30384771 Hash: 241910A760DBDDF8E4845A75DD442D8F Accuracy: -m8
  Conclusion: CDDA 100%
  Signature: 47E038CF8E6749BBE0943C708494665B8D3DA2EF
FILE: 02 Певец у микрофона.m4a
  Size: 36704325 Hash: 44BB4F69ACCABF89CA2E78720FE7628A Accuracy: -m8
  Conclusion: CDDA 100%
  Signature: A69EFF0A504B3F1926AAC96D6E78F76DD1E36DA4
FILE: 01 Райские яблоки.m4a
  Size: 36284716 Hash: CEEE64B91A53936C5012D59AF6DDABBD Accuracy: -m8
  Conclusion: CDDA 100%
  Signature: 063A89055ACEDACE81C0166B5CB80BC18D0B4376
Все альбомы и сборники Григория Лепса в ALAC

Время раздачи: с 20-00 до 02-00 постоянно / часто 24/7
[NNM-Club.me]_Leps (2007) Vtoroi&#774;.torrent
 Торрент: Платиновая раздача  Зарегистрирован
 
Скачать


Примагнититься
 Зарегистрирован:   07 Июн 2014 19:11:13
 Размер:   286 MB  (
 Рейтинг:   3.9 (Голосов: 50)
 Поблагодарили:   132
 Проверка:   Оформление проверено модератором 07 Июн 2014 23:31:29
Как cкачать  ·  Как раздать  ·  Правильно оформить  ·  Поднять ратио!  
crusader2008
Стаж: 13 лет 3 мес.
Сообщений: 39
Ratio: 8.881
2.81%
russia.gif
Альбом говню. Обосрал Владимир Семеныча одним махом.
dieug
Стаж: 7 лет 3 мес.
Сообщений: 270
Ratio: 59K
Поблагодарили: 16242
5.26%
andorra.gif
девятью потугами.

если в первом еще старался, то тут стал лабать свой наезженный шансон.
Показать сообщения:   
Начать новую тему   Ответить на тему    Торрент-трекер NNM-Club -> Аудио и Видео -> Музыка Lossless (ALAC) Часовой пояс: GMT + 3
Страница 1 из 1