Классический форум-трекер
canvas not supported
Нас вместе: 4 235 230

Клуб бунтарей / The Riot Club (2014) HDRip [576p] iPad


 
 
RSS
Начать новую тему   Ответить на тему    Торрент-трекер NNM-Club -> Аудио и Видео -> Зарубежное видео для устройств Apple
Автор Сообщение
gekka ®
Стаж: 17 лет 5 мес.
Сообщений: 2123
Ratio: 96.255
Поблагодарили: 135379
100%
Откуда: Москва, Дорогомилово
ussr.gif
Клуб бунтарей / The Riot Club (2014) HDRip [576p] iPad

Производство: Великобритания / © 2014 Blueprint Pictures (Posh) Limited, Channel Four Television Corporation and the British Film Institute.
Жанр: триллер, драма

Описание фильма:
Студент — первокурсник Оксфордского университета вступает в пользующийся дурной славой Клуб бунтарей. Здесь, за один вечер, можно создать или разрушить репутацию на годы вперёд.

Перевод: Двуголосый закадровый, любительский
Озвучка / Автор перевода: Артём Белоконский & Анжелика Чумакова
Вид субтитров: Вшитые отключаемые
Язык субтитров: Английский

Режиссер: Лоне Шерфиг
Актеры: Сэм Клафлин, Натали Дормер, Джессика Браун-Финдли, Дуглас Бут, Макс Айронс, Холлидей Грейнджер, Том Холландер, Сэм Рид, Бен Шнетцер


Дата мировой премьеры: 6 сентября 2014

Продолжительность: 01:47:01
Качество видео: HDRip
Видеокодек: MPEG-4 AVC/H.264, 1 024х428, 1 996 Kbps

Аудио #1: Русский - AAC / 2.0 / 128 Kbps / 48.0 KHz - Двуголосый закадровый
Аудио #2: Английский - AAC / 2.0 / 128 Kbps / 48.0 KHz
Код:

Sort Name: The Riot Club
XID: Apple:vendor_id:2015-741308
contentID: 966509611
Copyright: © 2014 Blueprint Pictures (Posh) Limited, Channel Four Television Corporation and the British Film Institute.
Screenwriters: Лаура Уэйд
Producers: Грэхэм Броадбент, Питер Чернин
Director: Лоне Шерфиг
Cast: Сэм Клафлин, Натали Дормер, Джессика Браун-Финдли, Дуглас Бут, Макс Айронс, Холлидей Грейнджер, Том Холландер, Сэм Рид, Бен Шнетцер
Studio:
Rating: 5
Long Description: Студент — первокурсник Оксфордского университета вступает в пользующийся дурной славой Клуб бунтарей. Здесь, за один вечер, можно создать или разрушить репутацию на годы вперёд.
Description: Студент — первокурсник Оксфордского университета вступает в пользующийся дурной славой Клуб бунтарей. Здесь, за один вечер, можно создать или разрушить репутацию на годы вперёд.
Release Date: 2015-03-13T08:00:00Z
Genre: Drama
Comments:
Artist: Lone Scherfig
Name: Клуб бунтарей
Код:

General
Complete name               : C:\CREATE\264mod1\out\The.Riot.Club\The Riot Club (2014) (SD).m4v
Format                      : MPEG-4
Codec ID                    : M4V
File size                   : 1.69 GiB
Duration                    : 1h 47mn
Overall bit rate mode       : Variable
Overall bit rate            : 2 260 Kbps
Movie name                  : Клуб бунтарей
Performer                   : Lone Scherfig
Director                    : Лоне Шерфиг
Actor                       : Сэм Клафлин / Натали Дормер / Джессика Браун-Финдли / Дуглас Бут / Макс Айронс / Холлидей Грейнджер / Том Холландер / Сэм Рид / Бен Шнетцер
Screenplay by               : Лаура Уэйд
Producer                    : Грэхэм Броадбент / Питер Чернин
Genre                       : Drama
ContentType                 : Short Film
Description                 : Студент — первокурсник Оксфордского университета вступает в пользующийся дурной славой Клуб бунтарей. Здесь, за один вечер, можно создать или разрушить репутацию на годы вперёд.
Recorded date               : UTC 2015-03-13 08:00:00
Encoded date                : UTC 2015-03-22 07:58:23
Tagged date                 : UTC 2015-03-22 08:04:03
Copyright                   : © 2014 Blueprint Pictures (Posh) Limited, Channel Four Television Corporation and the British Film Institute.
Cover                       : Yes
Rating                      : None
Title/Sort                  : The Riot Club
LongDescription             : Студент — первокурсник Оксфордского университета вступает в пользующийся дурной славой Клуб бунтарей. Здесь, за один вечер, можно создать или разрушить репутацию на годы вперёд.
AppleStoreCatalogID         : 966509611
Vendor                      : Apple:vendor_id:2015-741308
ContentRating               : mpaa|R|400|

Video #1
ID                          : 1
Format                      : AVC
Format/Info                 : Advanced Video Codec
Format profile              : High@L4.1
Format settings, CABAC      : Yes
Format settings, ReFrames   : 9 frames
Codec ID                    : avc1
Codec ID/Info               : Advanced Video Coding
Duration                    : 1h 47mn
Bit rate                    : 1 996 Kbps
Width                       : 1 024 pixels
Height                      : 428 pixels
Display aspect ratio        : 2.40:1
Frame rate mode             : Variable
Frame rate                  : 23.976 fps
Minimum frame rate          : 23.810 fps
Maximum frame rate          : 24.390 fps
Color space                 : YUV
Chroma subsampling          : 4:2:0
Bit depth                   : 8 bits
Scan type                   : Progressive
Bits/(Pixel*Frame)          : 0.190
Stream size                 : 1.49 GiB (88%)
Title                       : The Riot Club (2014)
Writing library             : x264 core 142 r2431+42 c69a006 tMod [8-bit@4:2:0 X86_64]
Encoding settings           : cabac=1 / ref=9 / deblock=1:-3:-3 / analyse=0x3:0x133 / me=umh / subme=11 / psy=1 / fade_compensate=0.00 / psy_rd=1.00:0.15 / mixed_ref=1 / me_range=48 / chroma_me=1 / trellis=2 / 8x8dct=1 / cqm=0 / deadzone=21,11 / fast_pskip=0 / chroma_qp_offset=-3 / threads=12 / lookahead_threads=2 / sliced_threads=0 / nr=0 / decimate=0 / interlaced=0 / bluray_compat=0 / constrained_intra=0 / fgo=0 / bframes=9 / b_pyramid=2 / b_adapt=2 / b_bias=0 / direct=3 / weightb=1 / open_gop=1 / weightp=2 / keyint=250 / keyint_min=23 / scenecut=40 / intra_refresh=0 / rc_lookahead=64 / rc=crf / mbtree=1 / crf=19.0000 / qcomp=0.65 / qpmin=0:0:0 / qpmax=69:69:69 / qpstep=4 / vbv_maxrate=31500 / vbv_bufsize=35000 / crf_max=0.0 / nal_hrd=none / filler=0 / ip_ratio=1.40 / aq=3:0.90 / aq-sensitivity=10.00 / aq-factor=1.00:1.00:1.00 / aq2=0 / aq3=2:[0.60:0.60]:[0.60:0.60]:[0.60:0.60]:[0.60:0.60] / aq3-sensitivity=10.00 / aq3-factor=[1.00:1.00]:[1.00:1.00]:[1.00:1.00] / aq3-boundary=192:64:24
Language                    : English
Encoded date                : UTC 2015-03-22 07:58:23
Tagged date                 : UTC 2015-03-22 08:02:15
Color primaries             : BT.709
Transfer characteristics    : BT.709
Matrix coefficients         : BT.709
Color range                 : Limited

Video #2
ID                          : 7
Format                      : JPEG
Codec ID                    : jpeg
Duration                    : 1h 47mn
Duration_LastFrame          : -2mn 59s
Bit rate mode               : Variable
Bit rate                    : 643 bps
Width                       : 640 pixels
Height                      : 267 pixels
Display aspect ratio        : 2.40:1
Frame rate mode             : Constant
Frame rate                  : 0.002 fps
Color space                 : YUV
Chroma subsampling          : 4:2:0
Bit depth                   : 8 bits
Compression mode            : Lossy
Bits/(Pixel*Frame)          : 1.881
Stream size                 : 432 KiB (0%)
Language                    : English
Encoded date                : UTC 2015-03-22 08:02:21
Tagged date                 : UTC 2015-03-22 08:02:21

Audio #1
ID                          : 2
Format                      : AAC
Format/Info                 : Advanced Audio Codec
Format profile              : LC
Codec ID                    : 40
Duration                    : 1h 47mn
Source duration             : 1h 47mn
Bit rate mode               : Variable
Bit rate                    : 128 Kbps
Maximum bit rate            : 211 Kbps
Channel(s)                  : 2 channels
Channel positions           : Front: L R
Sampling rate               : 48.0 KHz
Compression mode            : Lossy
Stream size                 : 98.0 MiB (6%)
Source stream size          : 98.0 MiB (6%)
Title                       : DVO
Language                    : Russian
Encoded date                : UTC 2015-03-22 07:58:23
Tagged date                 : UTC 2015-03-22 08:02:15

Audio #2
ID                          : 3
Format                      : AAC
Format/Info                 : Advanced Audio Codec
Format profile              : LC
Codec ID                    : 40
Duration                    : 1h 47mn
Source duration             : 1h 47mn
Bit rate mode               : Variable
Bit rate                    : 128 Kbps
Maximum bit rate            : 174 Kbps
Channel(s)                  : 2 channels
Channel positions           : Front: L R
Sampling rate               : 48.0 KHz
Compression mode            : Lossy
Stream size                 : 97.8 MiB (6%)
Source stream size          : 97.8 MiB (6%)
Language                    : English
Encoded date                : UTC 2015-03-22 07:58:23
Tagged date                 : UTC 2015-03-22 08:02:15

Text #1
ID                          : 4
Format                      : Timed Text
Muxing mode                 : sbtl
Codec ID                    : tx3g
Duration                    : 1h 40mn
Bit rate mode               : Variable
Bit rate                    : 72 bps
Stream size                 : 53.1 KiB (0%)
Title                       : SDH
Language                    : English
Encoded date                : UTC 2015-03-22 07:58:23
Tagged date                 : UTC 2015-03-22 08:02:15

Text #2
ID                          : 5
Format                      : Timed Text
Muxing mode                 : sbtl
Codec ID                    : tx3g
Duration                    : 1h 39mn
Bit rate mode               : Variable
Bit rate                    : 68 bps
Stream size                 : 49.4 KiB (0%)
Language                    : English
Encoded date                : UTC 2015-03-22 07:58:23
Tagged date                 : UTC 2015-03-22 08:02:15

Menu #1
00:00:00.000                : Chapter 1
00:10:00.000                : Chapter 2
00:20:00.000                : Chapter 3
00:30:00.000                : Chapter 4
00:40:00.000                : Chapter 5
00:50:00.000                : Chapter 6
01:00:00.000                : Chapter 7
01:10:00.000                : Chapter 8
01:20:00.000                : Chapter 9
01:30:00.000                : Chapter 10
01:40:00.000                : Chapter 11

Menu #2
ID                          : 6
Codec ID                    : text
Duration                    : 1h 47mn
Language                    : English
Encoded date                : UTC 2015-03-22 08:02:15
Tagged date                 : UTC 2015-03-22 08:02:15
Duration_LastFrame          : -179086
00:00:00.000                : Chapter 1
00:10:00.000                : Chapter 2
00:20:00.000                : Chapter 3
00:30:00.000                : Chapter 4
00:40:00.000                : Chapter 5
00:50:00.000                : Chapter 6
01:00:00.000                : Chapter 7
01:10:00.000                : Chapter 8
01:20:00.000                : Chapter 9
01:30:00.000                : Chapter 10
01:40:00.000                : Chapter 11
Bit rate mode               : VBR
Код:

x264 [info]: frame I:1432  Avg QP:12.91  size: 85624
x264 [info]: frame P:31392 Avg QP:16.74  size: 23615
x264 [info]: frame B:121124 Avg QP:19.78  size:  6093
x264 [info]: consecutive B-frames:  1.5%  1.4%  7.9% 17.9% 15.7% 46.2%  3.4%  2.2%  3.4%  0.5%
x264 [info]: mb I  I16..4: 15.5% 55.4% 29.1%
x264 [info]: mb P  I16..4:  0.6%  8.5%  1.8%  P16..4: 29.6% 34.9% 14.3%  3.9%  0.6%    skip: 5.8%
x264 [info]: mb B  I16..4:  0.0%  0.8%  0.1%  B16..8: 33.8% 18.9%  2.8%  direct: 4.7%  skip:38.7%  L0:41.2% L1:44.1% BI:14.7%
x264 [info]: 8x8 transform intra:74.0% inter:50.3%
x264 [info]: direct mvs  spatial:100.0% temporal:0.0%
x264 [info]: coded y,uvDC,uvAC intra: 95.3% 88.3% 71.6% inter: 22.1% 17.9% 8.8%
x264 [info]: i16 v,h,dc,p:  9%  7% 37% 48%
x264 [info]: i8 v,h,dc,ddl,ddr,vr,hd,vl,hu: 12%  9%  8%  9% 13% 13% 11% 13% 12%
x264 [info]: i4 v,h,dc,ddl,ddr,vr,hd,vl,hu: 13%  8%  4%  9% 15% 14% 12% 12% 12%
x264 [info]: i8c dc,h,v,p: 43% 20% 20% 17%
x264 [info]: Weighted P-Frames: Y:2.3% UV:0.3%
x264 [info]: ref P L0: 46.4%  8.8% 19.7%  6.9%  5.9%  3.9%  3.7%  2.1%  2.2%  0.3%  0.0%
x264 [info]: ref B L0: 79.3% 10.0%  4.3%  2.3%  1.6%  1.4%  0.8%  0.3%
x264 [info]: ref B L1: 95.1%  4.9%
x264 [info]: kb/s:1995.94
Скриншоты:


Время раздачи: 24/7, до 5 скачавших.
[NNM-Club.me]_The Riot Club (2014) (SD).m4v.torrent
 Торрент: Платиновая раздача  Зарегистрирован
 
Скачать


Примагнититься
 Зарегистрирован:   22 Мар 2015 11:11:24
 Размер:   1.69 GB  (
 Рейтинг:   3.9 (Голосов: 15)
 Поблагодарили:   46
 Проверка:   Оформление проверено модератором 22 Мар 2015 13:14:34
Как cкачать  ·  Как раздать  ·  Правильно оформить  ·  Поднять ратио!  

_________________
My make-up may be flaking, but my smile still stays on.
goretch
Стаж: 12 лет 2 мес.
Сообщений: 33
Ratio: 1.471
5.06%
Что то не качается
Показать сообщения:   
Начать новую тему   Ответить на тему    Торрент-трекер NNM-Club -> Аудио и Видео -> Зарубежное видео для устройств Apple Часовой пояс: GMT + 3
Страница 1 из 1