Классический форум-трекер
canvas not supported
Нас вместе: 4 172 814

Johann Sebastian Bach - Preludes: Тимофей Докшицер (Timofei Dokshitser) (1990) [FLAC|Lossless]<Baroque>


 
 
RSS
Начать новую тему   Ответить на тему    Торрент-трекер NNM-Club -> Классика -> Камерная (Lossless)
Автор Сообщение
svpavkin63 ®
Стаж: 11 лет 5 мес.
Сообщений: 1040
Ratio: 238.425
Поблагодарили: 12441
100%
russia.gif
Johann Sebastian Bach
Preludes
Тимофей Александрович Докшицер 2006

Год предположительно: 1990
Жанр: Baroque
Продолжительность: 00:41:44

Кодек: FLAC
Битрейт: Lossless
Тип рипа: tracks+.cue
Издатель (лейбл) ООО 'Артсервис'
Страна изготовитель: Россия
Номер по каталогу: ART-118
Год издания: 2006
Источник: duppyB
Наличие сканов в содержимом раздачи: да

Треклист:
01. D-Dur BWV 874 Preludes From 'The Well-Tempered Clavier' (03:10)
02. Es-Moll BWV 853 Preludes From 'The Well-Tempered Clavier' (04:11)
03. E-Dur BWV 878 Preludes From 'The Well-Tempered Clavier' (03:41)
04. F-Dur BWV 880 Preludes From 'The Well-Tempered Clavier' (03:09)
05. F-Moll BWV 857 Preludes From 'The Well-Tempered Clavier' (01:54)
06. As-Dur BWV 862 Preludes From 'The Well-Tempered Clavier' (01:15)
07. A-Moll BWV 865 Preludes From 'The Well-Tempered Clavier' (01:11)
08. B-Moll BWV 867 Preludes From 'The Well-Tempered Clavier' (02:43)
09. Es-Dur BWV 552 Organ Preludes (10:03)
10. G-Moll BWV 659 Organ Preludes (05:36)
11. F-Moll BWV 639 Organ Preludes (03:01)
12. D-Moll BWV 539 Organ Preludes (01:58)
Код:

Exact Audio Copy V1.0 beta 2 from 29. April 2011

EAC extraction logfile from 11. November 2011, 8:42

Timofey Dokshizer / Preludes

Used drive  : ASUS    DRW-24B3LT   Adapter: 3  ID: 0

Read mode               : Secure
Utilize accurate stream : Yes
Defeat audio cache      : Yes
Make use of C2 pointers : No

Read offset correction                      : 6
Overread into Lead-In and Lead-Out          : No
Fill up missing offset samples with silence : Yes
Delete leading and trailing silent blocks   : No
Null samples used in CRC calculations       : Yes
Used interface                              : Native Win32 interface for Win NT & 2000
Gap handling                                : Appended to previous track

Used output format              : User Defined Encoder
Selected bitrate                : 128 kBit/s
Quality                         : High
Add ID3 tag                     : No
Command line compressor         : C:\Program Files\Exact Audio Copy\Flac\flac.exe
Additional command line options : -V -8 -T "Genre=%genre%" -T "Artist=%artist%" -T "Title=%title%" -T "Album=%albumtitle%" -T "Date=%year%" -T "Tracknumber=%tracknr%" -T "Comment=%comment%" %source%

TOC of the extracted CD

     Track |   Start  |  Length  | Start sector | End sector
    ---------------------------------------------------------
        1  |  0:00.00 |  3:09.37 |         0    |    14211
        2  |  3:09.37 |  4:10.10 |     14212    |    32971
        3  |  7:19.47 |  3:40.50 |     32972    |    49521
        4  | 11:00.22 |  3:08.15 |     49522    |    63636
        5  | 14:08.37 |  1:53.40 |     63637    |    72151
        6  | 16:02.02 |  1:14.55 |     72152    |    77756
        7  | 17:16.57 |  1:10.38 |     77757    |    83044
        8  | 18:27.20 |  2:42.07 |     83045    |    95201
        9  | 21:09.27 | 10:02.73 |     95202    |   140424
       10  | 31:12.25 |  5:35.20 |    140425    |   165569
       11  | 36:47.45 |  3:00.02 |    165570    |   179071
       12  | 39:47.47 |  1:57.08 |    179072    |   187854

Track  1

     Filename E:\Timofey Dokshizer - I.C. Bach Preludes (2006)\01. D-Dur BWV 874 Preludes From ''The Well-Tempered Clavier''.wav

     Pre-gap length  0:00:02.00

     Peak level 90.0 %
     Extraction speed 3.6 X
     Track quality 100.0 %
     Test CRC 5DC9B3A6
     Copy CRC 5DC9B3A6
     Track not present in AccurateRip database
     Copy OK

Track  2

     Filename E:\Timofey Dokshizer - I.C. Bach Preludes (2006)\02. Es-Moll BWV 853 Preludes From ''The Well-Tempered Clavier''.wav

     Peak level 90.1 %
     Extraction speed 4.2 X
     Track quality 100.0 %
     Test CRC 29498F92
     Copy CRC 29498F92
     Track not present in AccurateRip database
     Copy OK

Track  3

     Filename E:\Timofey Dokshizer - I.C. Bach Preludes (2006)\03. E-Dur BWV 878 Preludes From ''The Well-Tempered Clavier''.wav

     Peak level 90.1 %
     Extraction speed 4.4 X
     Track quality 100.0 %
     Test CRC A5F271DB
     Copy CRC A5F271DB
     Track not present in AccurateRip database
     Copy OK

Track  4

     Filename E:\Timofey Dokshizer - I.C. Bach Preludes (2006)\04. F-Dur BWV 880 Preludes From ''The Well-Tempered Clavier''.wav

     Peak level 90.1 %
     Extraction speed 3.5 X
     Track quality 99.9 %
     Test CRC CFC9C955
     Copy CRC CFC9C955
     Track not present in AccurateRip database
     Copy OK

Track  5

     Filename E:\Timofey Dokshizer - I.C. Bach Preludes (2006)\05. F-Moll BWV 857 Preludes From ''The Well-Tempered Clavier''.wav

     Peak level 90.2 %
     Extraction speed 2.9 X
     Track quality 99.9 %
     Test CRC 434018B4
     Copy CRC 434018B4
     Track not present in AccurateRip database
     Copy OK

Track  6

     Filename E:\Timofey Dokshizer - I.C. Bach Preludes (2006)\06. As-Dur BWV 862 Preludes From ''The Well-Tempered Clavier''.wav

     Peak level 89.3 %
     Extraction speed 3.8 X
     Track quality 100.0 %
     Test CRC 5EE588F4
     Copy CRC 5EE588F4
     Track not present in AccurateRip database
     Copy OK

Track  7

     Filename E:\Timofey Dokshizer - I.C. Bach Preludes (2006)\07. A-Moll BWV 865 Preludes From ''The Well-Tempered Clavier''.wav

     Peak level 90.2 %
     Extraction speed 3.9 X
     Track quality 100.0 %
     Test CRC CC6914A4
     Copy CRC CC6914A4
     Track not present in AccurateRip database
     Copy OK

Track  8

     Filename E:\Timofey Dokshizer - I.C. Bach Preludes (2006)\08. B-Moll BWV 867 Preludes From ''The Well-Tempered Clavier''.wav

     Peak level 90.2 %
     Extraction speed 4.9 X
     Track quality 100.0 %
     Test CRC 664F6C0D
     Copy CRC 664F6C0D
     Track not present in AccurateRip database
     Copy OK

Track  9

     Filename E:\Timofey Dokshizer - I.C. Bach Preludes (2006)\09. Es-Dur BWV 552 Organ Preludes.wav

     Peak level 90.2 %
     Extraction speed 6.3 X
     Track quality 100.0 %
     Test CRC DF4F1EB1
     Copy CRC DF4F1EB1
     Track not present in AccurateRip database
     Copy OK

Track 10

     Filename E:\Timofey Dokshizer - I.C. Bach Preludes (2006)\10. G-Moll BWV 659 Organ Preludes.wav

     Peak level 90.2 %
     Extraction speed 6.4 X
     Track quality 100.0 %
     Test CRC B06F6619
     Copy CRC B06F6619
     Track not present in AccurateRip database
     Copy OK

Track 11

     Filename E:\Timofey Dokshizer - I.C. Bach Preludes (2006)\11. F-Moll BWV 639 Organ Preludes.wav

     Peak level 90.2 %
     Extraction speed 6.0 X
     Track quality 100.0 %
     Test CRC F27DCCC5
     Copy CRC F27DCCC5
     Track not present in AccurateRip database
     Copy OK

Track 12

     Filename E:\Timofey Dokshizer - I.C. Bach Preludes (2006)\12. D-Moll BWV 539 Organ Preludes.wav

     Peak level 90.2 %
     Extraction speed 5.7 X
     Track quality 100.0 %
     Test CRC 069C9C3F
     Copy CRC 069C9C3F
     Track not present in AccurateRip database
     Copy OK

None of the tracks are present in the AccurateRip database

No errors occurred

End of status report

==== Log checksum 3EA87842A119978401CDC367BC239218A0D9FF4416CB223FCDD27128B9974522 ====

Код:

REM EDIT CUESheet Editor for CA RipTools 21.12.2014 20:11:31
REM DATE 2006
REM GENRE Classical
REM DISCID 9D09C80C
REM DISCNUMBER 1
REM TOTALDISCS 1
REM PUBLISHER ООО 'Артсервис'
REM PUBNUMBER ART-118
REM COMMENT ExactAudioCopy v1.0b2
    PERFORMER "Timofey Dokshizer"
    TITLE "Preludes"
FILE "01.D-Dur BWV 874 Preludes From 'The Well-Tempered Clavier'.flac" WAVE
  TRACK 01 AUDIO
    TITLE "D-Dur BWV 874 Preludes From 'The Well-Tempered Clavier'"
    PERFORMER "Timofey Dokshizer"
     INDEX 01 00:00:00
FILE "02.Es-Moll BWV 853 Preludes From 'The Well-Tempered Clavier'.flac" WAVE
  TRACK 02 AUDIO
    TITLE "Es-Moll BWV 853 Preludes From 'The Well-Tempered Clavier'"
    PERFORMER "Timofey Dokshizer"
     INDEX 01 00:00:00
FILE "03.E-Dur BWV 878 Preludes From 'The Well-Tempered Clavier'.flac" WAVE
  TRACK 03 AUDIO
    TITLE "E-Dur BWV 878 Preludes From 'The Well-Tempered Clavier'"
    PERFORMER "Timofey Dokshizer"
     INDEX 01 00:00:00
FILE "04.F-Dur BWV 880 Preludes From 'The Well-Tempered Clavier'.flac" WAVE
  TRACK 04 AUDIO
    TITLE "F-Dur BWV 880 Preludes From 'The Well-Tempered Clavier'"
    PERFORMER "Timofey Dokshizer"
     INDEX 01 00:00:00
FILE "05.F-Moll BWV 857 Preludes From 'The Well-Tempered Clavier'.flac" WAVE
  TRACK 05 AUDIO
    TITLE "F-Moll BWV 857 Preludes From 'The Well-Tempered Clavier'"
    PERFORMER "Timofey Dokshizer"
     INDEX 01 00:00:00
FILE "06.As-Dur BWV 862 Preludes From 'The Well-Tempered Clavier'.flac" WAVE
  TRACK 06 AUDIO
    TITLE "As-Dur BWV 862 Preludes From 'The Well-Tempered Clavier'"
    PERFORMER "Timofey Dokshizer"
     INDEX 01 00:00:00
FILE "07.A-Moll BWV 865 Preludes From 'The Well-Tempered Clavier'.flac" WAVE
  TRACK 07 AUDIO
    TITLE "A-Moll BWV 865 Preludes From 'The Well-Tempered Clavier'"
    PERFORMER "Timofey Dokshizer"
     INDEX 01 00:00:00
FILE "08.B-Moll BWV 867 Preludes From 'The Well-Tempered Clavier'.flac" WAVE
  TRACK 08 AUDIO
    TITLE "B-Moll BWV 867 Preludes From 'The Well-Tempered Clavier'"
    PERFORMER "Timofey Dokshizer"
     INDEX 01 00:00:00
FILE "09.Es-Dur BWV 552 Organ Preludes.flac" WAVE
  TRACK 09 AUDIO
    TITLE "Es-Dur BWV 552 Organ Preludes"
    PERFORMER "Timofey Dokshizer"
     INDEX 01 00:00:00
FILE "10.G-Moll BWV 659 Organ Preludes.flac" WAVE
  TRACK 10 AUDIO
    TITLE "G-Moll BWV 659 Organ Preludes"
    PERFORMER "Timofey Dokshizer"
     INDEX 01 00:00:00
FILE "11.F-Moll BWV 639 Organ Preludes.flac" WAVE
  TRACK 11 AUDIO
    TITLE "F-Moll BWV 639 Organ Preludes"
    PERFORMER "Timofey Dokshizer"
     INDEX 01 00:00:00
FILE "12.D-Moll BWV 539 Organ Preludes.flac" WAVE
  TRACK 12 AUDIO
    TITLE "D-Moll BWV 539 Organ Preludes"
    PERFORMER "Timofey Dokshizer"
     INDEX 01 00:00:00

Код:

-----------------------

DON'T MODIFY THIS FILE

-----------------------

PERFORMER: auCDtect Task Manager, ver. 1.6.0 RC1 build 1.6.0.1
Copyright (c) 2008-2010 y-soft. All rights reserved
http://y-soft.org

ANALYZER: auCDtect: CD records authenticity detector, version 0.8.2
Copyright (c) 2004 Oleg Berngardt. All rights reserved.
Copyright (c) 2004 Alexander Djourik. All rights reserved.

FILE: 12.D-Moll BWV 539 Organ Preludes.flac
  Size: 10632679 Hash: E1197BBD68E83A7AEAD5E1ACB3D2E180 Accuracy: -m0
  Conclusion: CDDA 99%
  Signature: F677419013E67DF8EEA7AB075FE0DC2BB72ECB98
FILE: 11.F-Moll BWV 639 Organ Preludes.flac
  Size: 14491962 Hash: 0C7A9B4EB9B211C42FA8AFB26010EB51 Accuracy: -m0
  Conclusion: CDDA 100%
  Signature: AC5A487C6F258D29E9B8C82BFE732AEE4041C73F
FILE: 10.G-Moll BWV 659 Organ Preludes.flac
  Size: 26445403 Hash: 725EC965114B51AA423764EDE591EA55 Accuracy: -m0
  Conclusion: CDDA 100%
  Signature: 09992F84F56B5411520654140D908408492EFB0B
FILE: 09.Es-Dur BWV 552 Organ Preludes.flac
  Size: 54207166 Hash: 790084E97D82A51F78962CA99B572602 Accuracy: -m0
  Conclusion: CDDA 100%
  Signature: A875199AC1B3123A2A96387B65C742BF92E9F14D
FILE: 08.B-Moll BWV 867 Preludes From 'The Well-Tempered Clavier'.flac
  Size: 13255746 Hash: B3FFC72092CE1F6FD5CD6AD4AD7EDAB5 Accuracy: -m0
  Conclusion: CDDA 100%
  Signature: DB3D232A137C5C472442B5D419BD84A93E5A9D35
FILE: 07.A-Moll BWV 865 Preludes From 'The Well-Tempered Clavier'.flac
  Size: 6189154 Hash: 637DF4497E5EA9D6AC8BF8FE49E6C532 Accuracy: -m0
  Conclusion: CDDA 100%
  Signature: 456CDF8678D38ED6B0AA10AE51B59AEF603B116C
FILE: 06.As-Dur BWV 862 Preludes From 'The Well-Tempered Clavier'.flac
  Size: 6253178 Hash: 432EC5605D86FCBCE7C537698F8BFD6D Accuracy: -m0
  Conclusion: CDDA 100%
  Signature: 727212032957CF239870292D9E7F0899EBAE6EA7
FILE: 05.F-Moll BWV 857 Preludes From 'The Well-Tempered Clavier'.flac
  Size: 9699874 Hash: 0DFE42A8FEEF4E8738262690EAD17FF0 Accuracy: -m0
  Conclusion: CDDA 100%
  Signature: 455E323151C878CE6F2651881AA09AC7A77E03C5
FILE: 04.F-Dur BWV 880 Preludes From 'The Well-Tempered Clavier'.flac
  Size: 15187383 Hash: 09A2D4F2B843579DE5537DB71AB928B4 Accuracy: -m0
  Conclusion: CDDA 100%
  Signature: 5E4CFDA61D7893A47F3AE441DD4DC99E9B314CE3
FILE: 03.E-Dur BWV 878 Preludes From 'The Well-Tempered Clavier'.flac
  Size: 18280023 Hash: 50DD76947B90CCA50EBE6291C95EF872 Accuracy: -m0
  Conclusion: CDDA 100%
  Signature: C55156FB6D4D1399F16A4320639C30B6A55D1957
FILE: 02.Es-Moll BWV 853 Preludes From 'The Well-Tempered Clavier'.flac
  Size: 19791607 Hash: BA5F1E39F580A89B927924F8B0A267C0 Accuracy: -m0
  Conclusion: CDDA 99%
  Signature: 577C521FD786D627A1F654782B1A694271F71F0F
FILE: 01.D-Dur BWV 874 Preludes From 'The Well-Tempered Clavier'.flac
  Size: 15791949 Hash: B0EE0DB374FF4BCB41BE3A2A0EC2A748 Accuracy: -m0
  Conclusion: CDDA 100%
  Signature: 364CEEF03883089F26160B66758EBFA078145CBB

Тимофей (Тевель) Александрович Докшицер (13 декабря 1921, Нежин — 16 марта 2005, Вильнюс) — советский и российский трубач, педагог и дирижёр. Народный артист России, профессор Российской Академии Музыки имени Гнесиных. Брат Владимира Докшицера. Биография:
Родился в семье Александра Тевелевича Докшицера музыканта местного духового оркестра. В 1932 семья переехала в Москву, где Докшицер был взят на воспитание в оркестр 62-го кавалерийского полка, и с этого же времени начал обучаться игре на трубе в детских классах музыкального училища имени Глазунова у солиста оркестра Большого театра И. А. Василевского. С 14 лет учился в Центральной музыкальной школе в классе М. И. Табакова, а также играл в Балалаечном оркестре Центрального дома Красной армии, в составе которого выступал в разных городах СССР. К этому времени относится знакомство Докшицера с композитором В.А. Пескиным, впоследствии написавшим специально для него ряд сочинений для трубы. В 1941 году Докшицер принял участие во втором Всесоюзном конкурсе исполнителей на духовых инструментах и завоевал на нём третью премию (первые две не были присуждены).

В годы войны Докшицер музыкант оркестра штаба Московского военного округа, в его составе он принимал участие в параде на Красной площади 7 ноября 1941. С 1945 Докшицер продолжил учёбу у Табакова в Музыкально-педагогическом институте имени Гнесиных, и в том же году поступил по конкурсу в оркестр Большого театра. В 1947, на международном конкурсе в Праге первом, где участвовали советские исполнители на духовых инструментах, Докшицер получил первую премию. Докшицер окончил институт в 1950, а с 1952 обучался в классе оперно-симфонического дирижирования Московской консерватории у Л.М. Гинзбурга. С 1957 года окончания консерватории Докшицер периодически выступал в качестве дирижёра в Большом театре, однако, не чувствуя себя профессиональным дирижёром, в 1971 отошёл от этой деятельности.

Педагогическая деятельность Докшицера тесно связана с Музыкально-педагогическим институтом имени Гнесиных, где он работал сначала как ассистент своего учителя М. Табакова, а затем преподавал сам. За годы педагогической работы Докшицера в институте из его класса вышло более 100 высококлассных музыкантов, в том числе 15 лауреатов международных конкурсов. Музыкант также охотно давал мастер-классы и концерты как в России, так и за границей.

В 1989 в Нидерландах Докшицер перенёс операцию на сердце. С 1990 вместе со второй женой, Монной Рачгус, жил в Вильнюсе.

Похоронен на Донском кладбище в Москве.

Творчество:
Описание:
Докшицер один из крупнейших солистов-трубачей XX века. В его репертуар входили как классические сочинения для трубы, так и произведения, написанные специально для него. Среди композиторов, написавших свои сочинения для Докшицера Мечислав Вайнберг, Александр Арутюнян, Александра Пахмутова, Эйно Тамберг и другие советские и зарубежные композиторы.

Докшицер — автор многочисленных переложений для трубы сочинений, написанных для других инструментов, в частности — скрипичных. Многие произведения записаны и в дальнейшем переизданы на компакт-дисках (избранная дискография Докшицера включает более двадцати дисков). В 1960-80-е годы Докшицер выступал с сольными концертами во многих городах СССР и странах мира.

Докшицер — автор трёх книг: «Путь к творчеству», «Из записной книжки трубача» и «Трубач на коне».

YouTube




Поглощение/вытеснение
Только с согласия релизера

gvm55

Время раздачи: 24/7
[NNM-Club.me]_Timofey Dokshizer - I.C. Bach Preludes (2006).torrent
 Торрент: Платиновая раздача  Зарегистрирован
 
Скачать


Примагнититься
 Зарегистрирован:   21 Дек 2014 20:14:53
 Размер:   214 MB  (
 Рейтинг:   4.7 (Голосов: 29)
 Поблагодарили:   86
 Проверка:   Оформление проверено модератором 21 Дек 2014 23:29:42
Как cкачать  ·  Как раздать  ·  Правильно оформить  ·  Поднять ратио!  
Fot
Стаж: 11 лет 10 мес.
Сообщений: 71
Ratio: 15.915
Поблагодарили: 5
100%
yugoslavia.gif
Большое Спасибо!
Saxofon
Стаж: 10 лет 1 мес.
Сообщений: 20
Ratio: 19.551
100%
honduras.gif
Огромное спасибо.
Какой талант, какая сила!!!
ded11
Стаж: 12 лет 8 мес.
Сообщений: 17
Ratio: 2.027
2.54%
russia.gif
какой матерый человечище!

_________________
ОТ БАБ ОДНИ НЕСЧАСТЬЯ
Показать сообщения:   
Начать новую тему   Ответить на тему    Торрент-трекер NNM-Club -> Классика -> Камерная (Lossless) Часовой пояс: GMT + 3
Страница 1 из 1