Классический форум-трекер
canvas not supported
Нас вместе: 4 171 447

The Keith Emerson Band - Three fates project (2012) [FLAC|Lossless]<Crossover Progressive, Symphonic Progressive>


 
 
RSS
Начать новую тему   Ответить на тему    Торрент-трекер NNM-Club -> Other Styles -> Instrumental (Lossless)
Автор Сообщение
Amentia ®
Стаж: 10 лет 10 мес.
Сообщений: 402
Ratio: 166.809
Раздал: 35.47 TB
Поблагодарили: 29950
100%
Откуда: Третий камень от Солнца
ussr.gif
The Keith Emerson Band - Three fates project (2012)
Страна-производитель диска: Россия
Год издания: 2012
Страна исполнителя: United Kingdom
Жанр: Crossover Progressive, Symphonic Progressive
Продолжительность: 01:03:23

Кодек: FLAC
Битрейт: Lossless
Тип рипа: image+.cue

Треклист:
01. The Endless Enigma Suite Pt. 1 (04:08)
02. The Endless Enigma Suite Pt. 2 (03:06)
03. American Matador (05:32)
04. After All Of This (04:15)
05. Walking Distance (03:48)
06. Tarkus - Concertante (20:04)
07. Malambo (04:03)
08. The Mourning Sun (02:57)
09. Abaddon's Bolero (06:42)
10. Fanfare For The Common Man Pt. 1 (03:33)
11. Fanfare For The Common Man Pt. 2 (05:10)
Проект мечты Кита Эмерсона явился бесценным опытом для всех его участников. Норвежский дирижер Терье Миккельсен сумел таким образом прикоснуться к миру прогрессива, самому же Киту, гитаристу Марку Бонилле и другим членам The Keith Emerson Band выпал редкий шанс поучаствовать в грандиозном филармоническом ангажементе. Конечно, идея синтеза академической музыки с роком отнюдь не нова. Но обычно главной заинтересованной стороной выступали представители андеграунда.

В данном случае, насколько можно судить, инициатива исходила от нордического мэтра, давно и прочно работающего с оркестрами разных стран и континентов. Основной сложностью виделся процесс адаптации сочинений из наследия ELP применительно к исполнению их гигантским коллективом Münchner Rundfunkorchester в количестве 63 человек. Поэтому оркестровкой занимались сообща: Эмерсон, Миккельсен, Бонилла + такие корифеи сцены, как индийский скрипач/композитор Джон Майер, Юстайн Нигар, Жюли Жиро, норвежский пианист/органист Кьетиль Бьеркестранд и японский классицист Такаси Ёсимацу, некогда перекладывавший для струнного состава произведения The Beatles, Pink Floyd да и тех же Emerson, Lake & Palmer. Результат командного труда оказался настолько хорош, что "Three Fates Project" выпустили на CD лейблы в США, России, Европе, государствах Скандинавии. А для особо упертых коллекционеров винила фирма Simax Classics даже отпечатала LP-вариант релиза.

Осознанный отказ от вокальных фрагментов, на мой взгляд, лишь прибавил очков грандам. В конце концов, так и проверяется истинная сила музыки. И этот экзамен творения мистера Эмерсона выдержали более чем достойно.

Солидные оркестровые пассажи в сюите "The Endless Enigma" уравновешиваются ритмической пульсацией ударных (Трой Луккетта) и баса (Трэвис Дэвис), электрическими завихрениями соло-гитары (Бонилла). А нечастые фортепианные маневры мастермайнда в контексте действа воспринимаются своеобразной пунктирной линией — скромной, но предельно строгой (экс-разрушитель "Хаммонда" повзрослел, остепенился и сменил замшево-кожаный прикид на фрачную пару с галстуком-бабочкой). Экстремальный хард-фьюжн-боевик "American Matador" авторства Марка отмечен присутствием греко-американского барабанщика Тосса Паноса и драматическим накалом звуковых страстей; неплохой эмоциональный срез перед возвышенными романтическими всполохами эскиза "After all of This" (дивной красоты вещь). В сюжете "Walking Distance" пера Бониллы элегический строй испещрен авантюрными заусенцами, что не позволяет зарисовке скатиться в область банальных музыкальных штампов. В непосредственной близи от означенного трека распростерся ядреный крупнокалиберный опус "Tarkus (concertante)" — без преувеличения культовая конструкция трио Эмерсон, Лейк энд Палмер, один из канонических эпиков планетарного прогрессив-рока. Присущий ему масштаб обрел новое измерение благодаря полифонической симфо-эстетике, помноженной на виртуозные, захлебывающиеся адреналином лид-партии Марка. После такого самое время оттянуться под прог-тарантеллу "Malambo" Альберто Гинастеры или предаться раздумьям, облеченным в чистые оркестровые краски пассажа "The Mourning Sun". Изощренный монотематизм "Abaddon's Bolero" прирастает выразительными духовыми и экстатической, сметающей все живое гитарой. Апофеозом концерта для сводной инструментальной капеллы служит дилогия Аарона Коупленда "Fanfare for the Common Man" — прекрасный повод для арт-рокеров блеснуть техническим совершенством и чувством стиля.

Резюмируя: фактически эталонный пример грамотного слияния "большого" и "малого" видов искусств. Рекомендую почитателям прогрессивных экспериментов на почве тотального симфонизма.
Просмотр доступен только для зарегистрированных пользователей
Просмотр доступен только для зарегистрированных пользователей
REM GENRE "Sympho Rock"
REM DATE 2012
REM DISCID 950EDB0B
REM COMMENT "ExactAudioCopy v1.0b3"
PERFORMER "The Keith Emerson Band"
TITLE "Three fates project"
FILE "The Keith Emerson Band - Three fates project.flac" WAVE
TRACK 01 AUDIO
TITLE " The Endless Enigma Suite Pt. 1 "
PERFORMER "The Keith Emerson Band"
ISRC US3M51216501
INDEX 01 00:00:00
TRACK 02 AUDIO
TITLE " The Endless Enigma Suite Pt. 2"
PERFORMER "The Keith Emerson Band"
ISRC US3M51216502
INDEX 00 04:07:33
INDEX 01 04:08:18
TRACK 03 AUDIO
TITLE " American Matador "
PERFORMER "The Keith Emerson Band"
ISRC US3M51216503
INDEX 00 07:13:05
INDEX 01 07:14:72
TRACK 04 AUDIO
TITLE "After All Of This"
PERFORMER "The Keith Emerson Band"
ISRC US3M51216504
INDEX 00 12:45:66
INDEX 01 12:47:00
TRACK 05 AUDIO
TITLE "Walking Distance"
PERFORMER "The Keith Emerson Band"
ISRC US3M51216505
INDEX 00 17:01:21
INDEX 01 17:02:03
TRACK 06 AUDIO
TITLE "Tarkus - Concertante"
PERFORMER "The Keith Emerson Band"
ISRC US3M51216506
INDEX 00 20:49:44
INDEX 01 20:50:66
TRACK 07 AUDIO
TITLE "Malambo"
PERFORMER "The Keith Emerson Band"
ISRC US3M51216507
INDEX 00 40:52:52
INDEX 01 40:55:61
TRACK 08 AUDIO
TITLE "The Mourning Sun "
PERFORMER "The Keith Emerson Band"
ISRC US3M51216508
INDEX 00 44:56:23
INDEX 01 44:59:39
TRACK 09 AUDIO
TITLE " Abaddon's Bolero"
PERFORMER "The Keith Emerson Band"
ISRC US3M51216509
INDEX 00 47:54:16
INDEX 01 47:57:11
TRACK 10 AUDIO
TITLE " Fanfare For The Common Man Pt. 1"
PERFORMER "The Keith Emerson Band"
ISRC US3M51216510
INDEX 00 54:37:18
INDEX 01 54:39:24
TRACK 11 AUDIO
TITLE "Fanfare For The Common Man Pt. 2"
PERFORMER "The Keith Emerson Band"
ISRC US3M51216511
INDEX 01 58:12:45




Время раздачи: круглосуточно

Поглощение/вытеснение
Только с согласия релизера

D0G
[NNM-Club.me]_KEITH EMERSON BAND.torrent
 Торрент: Платиновая раздача  Зарегистрирован
 
Скачать


Примагнититься
 Зарегистрирован:   24 Апр 2015 06:34:13
 Размер:   377 MB  (
 Рейтинг:   4.6 (Голосов: 16)
 Поблагодарили:   50
 Проверка:   Оформление проверено модератором 24 Апр 2015 11:40:46
Как cкачать  ·  Как раздать  ·  Правильно оформить  ·  Поднять ратио!  
schniftmann
Стаж: 1 год 8 мес.
Сообщений: 4
Ratio: 0.183
0%
Загрузка возможна ещё?
Показать сообщения:   
Начать новую тему   Ответить на тему    Торрент-трекер NNM-Club -> Other Styles -> Instrumental (Lossless) Часовой пояс: GMT + 3
Страница 1 из 1