Классический форум-трекер
canvas not supported
Нас вместе: 4 216 116

Василий Кашеваров | Запись Вокала и Основы Звукозаписи На Компьютере (2011) [PCRec]


 
 
RSS
Начать новую тему   Ответить на тему    Торрент-трекер NNM-Club -> Обучающие видеоматериалы -> Музыка, видеокурсы
Автор Сообщение
Peaveykin ®
Стаж: 13 лет
Сообщений: 107
Ratio: 152.615
Поблагодарили: 10606
100%
ukraine.gif
Василий Кашеваров | Запись Вокала и Основы Звукозаписи На Компьютере (2011) [PCRec]
Автор (режиссер): Василий Кашеваров
Название: Запись Вокала и Основы Звукозаписи На Компьютере
Год выпуска: 2011
Жанр: Работа со звуком
Язык: Русский
Продолжительность: 09:59:43
Качество видео: PCRec
Видеокодек: DivX 5
Битрейт видео: ~354 Kbps, 15.000 fps,
Размер кадра: 1024x708, 1.446
Аудиокодек: PCM
Битрейт аудио: 1 411.2 Kbps, 2 channels, 44.1 KHz

Описание: Думаете научиться записывать голос и освоить приемы звукозаписи в целом сложно? Ничего подобного!
Данный курс создан для тех кто хочет научиться записывать вокал и музыкальные инструменты в домашних условиях, либо создав собственную студию звукозаписи на базе обычного компьютера и научиться работать со звуком на профессиональном уровне. Для того чтобы научиться качественно работать со звуком нужно просто не бояться экспериментировать, знать немного звукорежиссерской теории и использовать приемы и техники которые практикуются в профессиональных студиях в России и зарубежом.
Звукорежиссерские приемы, результаты которых вы можете слышать по радио и на альбомах любимых исполнителей передаются по большей части из уст в уста между студийными специалистами. Знания приобретаются благодаря опыту, который человек занимающийся звукозаписью растит со временем.
Поскольку на данный момент существует дефицит практически полезных материалов обучающих искусству записи вокала и звукозаписи в целом самостоятельным путем, автором был создан видеосамоучитель который помогает новичку за короткий срок освоить звукозапись с практической стороны и научиться качественно записывать о обрабатывать музыку, вокал, инструменты, и как результат получать на выходе качественные музыкальные треки профессионального уровня.

Курс состоит из 2-x дисков:
DVD диск с видеоуроками о работе со звуком.
DVD диск с необходимыми программами и техническими видеоуроками. Содержание. Введение.

Подготовка к изучению. Как сконценцентрироваться на существенном.

1 раздел курса. Выбор компонентов для записи.
2 раздел курса.Делаем первую запись с микрофона.
3 раздел курса. Видеоуроки о том как правильно производить запись вокала или инструментов.
4 раздел курса. Осваиваем эффекты акустической и динамической обработки.
5 раздел курса. Учимся исправлять фальшивые ноты вокала.
6 раздел курса. Улучшаем запись с помощью наложения других вокальных партий.
7 раздел курса. Последняя стадия сведения.
8 раздел курса. Проводим окончательную "доводку" трека. Мастеринг.
9 раздел курса. Акустическая подготовка помещения.
10 бонусный раздел курса. Применение и сочетание "сложных" эффектов обработки для разных стилей.
General
Complete name : E:\TORRENTS.RU\Запись Вокала и Основы Звукозаписи На Базе Компьютера\Диск-1\1.1 Начало.avi
Format : AVI
Format/Info : Audio Video Interleave
File size : 783 MiB
Duration : 1h 1mn
Overall bit rate : 1 769 Kbps

Video
ID : 0
Format : MPEG-4 Visual
Format settings, BVOP : Yes
Format settings, QPel : No
Format settings, GMC : No warppoints
Format settings, Matrix : Default (H.263)
Codec ID : DX50
Codec ID/Hint : DivX 5
Duration : 1h 1mn
Bit rate : 354 Kbps
Width : 1 024 pixels
Height : 708 pixels
Display aspect ratio : 1.446
Frame rate : 15.000 fps
Color space : YUV
Chroma subsampling : 4:2:0
Bit depth : 8 bits
Scan type : Progressive
Compression mode : Lossy
Bits/(Pixel*Frame) : 0.033
Stream size : 157 MiB (20%)
Writing library : DivX 6.8.0 (UTC 2007-12-04)

Audio
ID : 1
Format : PCM
Format settings, Endianness : Little
Format settings, Sign : Signed
Codec ID : 1
Duration : 1h 1mn
Bit rate mode : Constant
Bit rate : 1 411.2 Kbps
Channel(s) : 2 channels
Sampling rate : 44.1 KHz
Bit depth : 16 bits
Stream size : 624 MiB (80%)
Interleave, duration : 1000 ms (15.00 video frames)
Interleave, preload duration : 750 ms
Скриншоты:


Время раздачи: с 09:00 до 24:00
[NNM-Club.me]_Zapis' Vokala i Osnovyi Zvukozapisi Na Baze Komp'yutera.torrent
 Торрент: Платиновая раздача  Зарегистрирован
 
Скачать


Примагнититься
 Зарегистрирован:   02 Окт 2013 17:35:57
 Размер:   7.42 GB  (
 Рейтинг:   4.7 (Голосов: 66)
 Поблагодарили:   209
 Проверка:   Оформление проверено модератором 03 Окт 2013 18:11:23
Как cкачать  ·  Как раздать  ·  Правильно оформить  ·  Поднять ратио!  
werwergwer
Стаж: 11 лет 11 мес.
Сообщений: 217
Ratio: 1.091
100%
russia.gif
Кто все посмотрел отпишитесь пожалуйста, нет ли у вас проблем с открытием некоторых файлов? У меня комп виснет и пока не перезагрузишь работать отказывается...
mister_p
Стаж: 9 лет 4 мес.
Сообщений: 5
Ratio: 4.535
0%
курс гомно!
Airutdin
Стаж: 8 лет 6 мес.
Сообщений: 1
Ratio: 0.856
100%
mister_p
)))не могу понять каким местом вы его слушали.кстати для себя много неизвестных штучек изрек из курса.курс просто находка.а вот то что вы пишите,просто неприемлемо к данному курсу
Лёк
Стаж: 8 лет 6 мес.
Сообщений: 5
Ratio: 46.474
25.88%
ребят, есть кто-нибудь на раздачу? позязя
Показать сообщения:   
Начать новую тему   Ответить на тему    Торрент-трекер NNM-Club -> Обучающие видеоматериалы -> Музыка, видеокурсы Часовой пояс: GMT + 3
Страница 1 из 1