Классический форум-трекер
canvas not supported
Нас вместе: 4 166 487

Rebellion - Arminius - Furor Teutonicus (2012) [FLAC|Lossless]<Heavy Metal, Power Metal>


 
 
RSS
Начать новую тему   Ответить на тему    Торрент-трекер NNM-Club -> Архив торрентов -> Архив Музыки
Автор Сообщение
Aygift ®
Uploader 100+
Стаж: 11 лет 2 мес.
Сообщений: 742
Ratio: 7562.056
Поблагодарили: 15640
100%
Rebellion - Arminius - Furor Teutonicus (2012)
Год: 2012
Жанр: Heavy Metal, Power Metal
Продолжительность: 00:59:33
Страна: Германия
Кодек: FLAC (image+.cue+.log)
Битрейт: Lossless
Наличие сканов: да
Издатель (лейбл): Massacre Records
Номер по каталогу: MAS CD0805
Источник (релизер): [MMT] ilijan
Трек лист:
01. Rest in Peace 06:52
02. Ala Germanica 04:05
03. Prince of the Cheruscer 04:38
04. Dusk Awaiting Dawn 05:23
05. Breeding Hate 04:25
06. The Seeress Tower 06:33
07. Varus 04:30
08. The Tribes United 04:08
09. Ghost of Freedom 05:00
10. Furor Teutonicus 04:08
11. Vae Victis 04:26
12. Requiem 05:19
Альбом выпущен 26 октября 2012 года лейблом Massacre Records.
Покинув в начале века ряды "Grave Digger", гитарист Уве Лулис и басист Томи Геттлих решили продолжить совместную работу в новой команде "Rebellion". В оригинальный "повстанческий" отряд также были зачислены Михаэль Сейферт (вокал), Бьорн Эйлен (гитара) и Рэнди Блэк (ударные; "Annihilator"). Первая работа группы, "A Tragedy In Steel", носила концептуальный характер и являлась переложением на металлический лад шекспировской трагедии "Макбет". В плане музыки альбом недалеко ушел от творений "Grave Digger", однако своеобразие ему придавало множество разговорных фрагментов, произносимых от лица различных персонажей. Так или иначе, но диск обратил на себя внимание метал-общественности, и в ходе сопутствующих туров команде довелось отыграть несколько хедлайнерских сетов.

Вторая полнометражка, вышедшая весной 2003-го, была снова записана в студии "Black Solaris" и, также как и дебют, реализовывалась через "Drakkar Records". На этот раз музыканты не стали заморачиваться над единым сюжетом и накидали подборку песен с традиционными для тяжелого жанра текстами о войнах, драконах и тому подобном.

Темп композиций менялся от быстрого ("Adrenalin") до среднего ("Queen Of Spades") и медленного ("Iron Flames"), но в целом на диске звучал прямолинейный хэви-метал. Раскрутка "Born A Rebel" проходила в компании с "Running Wild" и "U.D.O.", а также на ряде европейских фестивалей, после чего группа начала работу над третьим альбомом. На этот раз коллектив решил вернуться к концептуальному формату, а с подачи любившего копаться в исторических книгах Геттлиха "повстанцы" затеяли трилогию о викингах. Но если обычно подобные темы носили общий романтический характер, то в первой саге "Rebellion" постарались в своих песнях изложить конкретные исторические факты и представить реальных персонажей типа Эрика Рыжего и Харальда Хорфагера.

Выход "Sagas Of Iceland", отличавшегося от предшественников значительным улучшением качества звука, ознаменовался перемещением команды под крышу "Massacre Records" и заменой ушедшего Рэнди Блэка Гердом Люкингом.

Окончательно утвердившись в статусе хедлайнера, группа нарезала круги по Германии, Швейцарии и Бельгии, однако бесконечные гастроли подкосили здоровье Эйлена, и ему пришлось покинуть состав. Заменой ему стала гитаристка Симона Вензель, дебютировавшая на второй части трилогии "History Of The Vikings". Данный альбом разрушал стереотипные представления о воинственности скандинавов и рассказывал о прокладке викингами торгового пути в Византию. Впрочем, если не вдаваться в текстовые подробности, то мирный настрой "Miklagard" можно было и не уловить, поскольку дух песен имел вполне боевой дух, а общий темп композиций относительно "Sagas Of Iceland" заметно подрос.В 2009 году "Rebellion" добавили в свой саунд дополнительную порцию тяжести и агрессивности и завершили трилогию пластинкой "Arise: From Ginnugagap To Ragnarok", базировавшейся на норвежской мифологии и посвященной северным богам.

Работа получила теплый прием, и казалось, ничто не предвещало катастрофы, однако в конце 2010-го команду покинули сразу трое участников: Лулис, Люкинг и Вензель. И хотя расставание с ними прошло мирно, над будущим "повстанцев" повис большой вопрос. Но всё решилось благополучно - летом 2011 года состав группы был укомплектован.

Состав группы:

Вокал: Michael Seifert
Бас-гитара: Tomi Göttlich
Гитара: (с 2011) Stephan Karut
Гитара: (с 2011) Oliver Geibig
Ударные: (с 2011) David Faifer

Бывшие участники:

Гитара, вокал: Björn Eilen
Гитара: Uwe Lulis
Гитара: Simone Wenzel
Ударные: Randy Black
Ударные: Gerd Lücking

Дискография:

(2012) Arminius: Furor Teutonicus
(2012) The Best Of Viking History (Compilation)
(2009) Arise: From Ginnungagap To Ragnarok - History Of The Vikings, Vol. III
(2009) The Clans Are Marching (EP)
(2007) Miklagard The History Of The Vikings Volume II
(2005) Sagas Of Iceland – The History Of The Vikings Volume 1
(2003) Born A Rebel
(2002) Shakespeare's Macbeth – A Tragedy In Steel

Веб-сайты:

Официальный сайт: http://www.rebellion.st/
MySpace-страница: http://www.myspace.com/rebellionfromhell
Код: выделить все

Exact Audio Copy V0.99 prebeta 5 from 4. May 2009

EAC extraction logfile from 9. November 2012, 20:11

Rebellion / Arminius - Furor Teutonicus

Used drive  : ATAPI   iHAS624   B   Adapter: 2  ID: 0

Read mode               : Secure
Utilize accurate stream : Yes
Defeat audio cache      : Yes
Make use of C2 pointers : No

Read offset correction                      : 6
Overread into Lead-In and Lead-Out          : No
Fill up missing offset samples with silence : Yes
Delete leading and trailing silent blocks   : No
Null samples used in CRC calculations       : Yes
Used interface                              : Installed external ASPI interface

Used output format              : User Defined Encoder
Selected bitrate                : 40 kBit/s
Quality                         : High
Add ID3 tag                     : No
Command line compressor         : C:\Program Files\Exact Audio Copy\Flac\flac.exe
Additional command line options : -6 -V %s

TOC of the extracted CD

     Track |   Start  |  Length  | Start sector | End sector
    ---------------------------------------------------------
        1  |  0:00.00 |  6:52.70 |         0    |    30969
        2  |  6:52.70 |  4:05.23 |     30970    |    49367
        3  | 10:58.18 |  4:38.20 |     49368    |    70237
        4  | 15:36.38 |  5:23.51 |     70238    |    94513
        5  | 21:00.14 |  4:25.63 |     94514    |   114451
        6  | 25:26.02 |  6:33.32 |    114452    |   143958
        7  | 31:59.34 |  4:30.29 |    143959    |   164237
        8  | 36:29.63 |  4:08.05 |    164238    |   182842
        9  | 40:37.68 |  5:00.44 |    182843    |   205386
       10  | 45:38.37 |  4:08.67 |    205387    |   224053
       11  | 49:47.29 |  4:26.15 |    224054    |   244018
       12  | 54:13.44 |  5:19.49 |    244019    |   267992

Range status and errors

Selected range

     Filename D:\Download\Rebellion - Arminius - Furor Teutonicus.wav

     Peak level 97.7 %
     Range quality 100.0 %
     Copy CRC 57A5C142
     Copy OK

No errors occurred

AccurateRip summary

Track  1  not present in database
Track  2  not present in database
Track  3  not present in database
Track  4  not present in database
Track  5  not present in database
Track  6  not present in database
Track  7  not present in database
Track  8  not present in database
Track  9  not present in database
Track 10  not present in database
Track 11  not present in database
Track 12  not present in database

None of the tracks are present in the AccurateRip database

End of status report
Код: выделить все

-----------------------

DON'T MODIFY THIS FILE

-----------------------

PERFORMER: auCDtect Task Manager, ver. 1.5.1RC6 build 1.5.1.7
Copyright (c) 2008-2010 y-soft. All rights reserved
http://y-soft.org

ANALYZER: auCDtect: CD records authenticity detector, version 0.8.2
Copyright (c) 2004 Oleg Berngardt. All rights reserved.
Copyright (c) 2004 Alexander Djourik. All rights reserved.

FILE: Rebellion - Arminius - Furor Teutonicus.flac
  Size: 448922100 Hash: 96638288D6E9689403E6FA2D27123687 Accuracy: -m0
  Conclusion: CDDA 100%
  Signature: B5EE4D691186689A315E9D14A20AC0E8BA4F050C
REM GENRE "Power Metal"
REM DATE 2012
REM DISCID AA0DF50C
REM COMMENT "ExactAudioCopy v0.99pb5"
PERFORMER "Rebellion"
TITLE "Arminius - Furor Teutonicus"
FILE "Rebellion - Arminius - Furor Teutonicus.flac" WAVE
TRACK 01 AUDIO
TITLE "Rest in Peace"
PERFORMER "Rebellion"
INDEX 01 00:00:00
TRACK 02 AUDIO
TITLE "Ala Germanica"
PERFORMER "Rebellion"
INDEX 01 06:52:70
TRACK 03 AUDIO
TITLE "Prince of the Cheruscer"
PERFORMER "Rebellion"
INDEX 01 10:58:18
TRACK 04 AUDIO
TITLE "Dusk Awaiting Dawn"
PERFORMER "Rebellion"
INDEX 01 15:36:38
TRACK 05 AUDIO
TITLE "Breeding Hate"
PERFORMER "Rebellion"
INDEX 01 21:00:14
TRACK 06 AUDIO
TITLE "The Seeress' Tower"
PERFORMER "Rebellion"
INDEX 01 25:26:02
TRACK 07 AUDIO
TITLE "Varus"
PERFORMER "Rebellion"
INDEX 01 31:59:34
TRACK 08 AUDIO
TITLE "The Tribes United"
PERFORMER "Rebellion"
INDEX 01 36:29:63
TRACK 09 AUDIO
TITLE "Ghost of Freedom"
PERFORMER "Rebellion"
INDEX 01 40:37:68
TRACK 10 AUDIO
TITLE "Furor Teutonicus"
PERFORMER "Rebellion"
INDEX 01 45:38:37
TRACK 11 AUDIO
TITLE "Vae Victis"
PERFORMER "Rebellion"
INDEX 01 49:47:29
TRACK 12 AUDIO
TITLE "Requiem"
PERFORMER "Rebellion"
INDEX 01 54:13:44

Время раздачи: 21:00 - 00:00


Поглощение/вытеснение
Только с согласия релизера

Bigbeer
[NNM-Club.ru]_Rebellion - 2012 - Arminius Furor Teutonicus.torrent
 Торрент: Золотая раздача  Зарегистрирован
 
Зарегистрируйтесь и скачайте торрент!
20.4 KB

 Зарегистрирован:   27 Ноя 2012 05:14:28
 Размер:   480 MB  (
 Рейтинг:   4.7 (Голосов: 15)
 Поблагодарили:   40
 Проверка:   Оформление проверено модератором 27 Ноя 2012 11:46:04
Как cкачать  ·  Как раздать  ·  Правильно оформить  ·  Поднять ратио!  
Топик был перенесен из форума Metal (Lossless) в форум Архив Музыки

Причина переноса: Длительное отсутствие сида на протяжении более 6 месяцев.

Исправил релиз - напиши ЛС chaosman1986, дав ссылку на релиз.
Если нет ответа 24 часа - нажми на кнопку "Обратить внимание модераторов".
Показать сообщения:   
Начать новую тему   Ответить на тему    Торрент-трекер NNM-Club -> Архив торрентов -> Архив Музыки Часовой пояс: GMT + 3
Страница 1 из 1