Классический форум-трекер
canvas not supported
Нас вместе: 4 166 235

Blazon Stone - Return To Port Royal (2013) [WavPack|Lossless]<Heavy Metal/Power/Speed>


 
 
RSS
Начать новую тему   Ответить на тему    Торрент-трекер NNM-Club -> Архив торрентов -> Архив Музыки
Автор Сообщение
Shuran80 ®
Свободный релизер
 
Стаж: 12 лет 6 мес.
Сообщений: 3348
Ratio: 1102.125
Раздал: 87.06 TB
Поблагодарили: 192313
100%
Откуда: Ленинград
ussr.gif
Blazon Stone - Return To Port Royal (2013)
Год: 2013
Жанр: Heavy Metal/Power/Speed
Страна: Швеция
Продолжительность: 00:47:19

Издатель: Stormspell Records
Номер по каталогу: SSR-DL 104
Кодек: WavPack (image+.cue)
Битрейт: Lossless

Треклист:
01. Black Chest Inn (Intro) (1:31)
02. Return To Port Royal (5:09)
03. Stand Your Line (4:24)
04. Amistad Rebellion (4:36)
05. High Treason (6:28)
06. Curse Of The Ghostship (5:11)
07. Blackbeard (4:49)
08. Wind In The Sails (6:23)
09. The Tale Of Wasa (8:47)
Код:

Exact Audio Copy V1.0 beta 3 from 29. August 2011

EAC extraction logfile from 25. October 2013, 1:40

Blazon Stone / Return To Port Royal

Used drive  : Optiarc DVD RW AD-7260S   Adapter: 3  ID: 0

Read mode               : Secure
Utilize accurate stream : Yes
Defeat audio cache      : Yes
Make use of C2 pointers : No

Read offset correction                      : 48
Overread into Lead-In and Lead-Out          : No
Fill up missing offset samples with silence : Yes
Delete leading and trailing silent blocks   : No
Null samples used in CRC calculations       : Yes
Used interface                              : Native Win32 interface for Win NT & 2000

Used output format              : User Defined Encoder
Selected bitrate                : 1024 kBit/s
Quality                         : High
Add ID3 tag                     : No
Command line compressor         : D:\Program Files\Exact Audio Copy\WavPack\wavpack.exe
Additional command line options : -hhx6 -w "Artist=%artist%" -w "Album=%albumtitle%" -w "Year=%year%" -w "Genre=%genre%" -w "Cuesheet=@*.cue" %source% %dest%

TOC of the extracted CD

     Track |   Start  |  Length  | Start sector | End sector
    ---------------------------------------------------------
        1  |  0:00.00 |  1:30.48 |         0    |     6797
        2  |  1:30.48 |  5:08.56 |      6798    |    29953
        3  |  6:39.29 |  4:24.16 |     29954    |    49769
        4  | 11:03.45 |  4:36.35 |     49770    |    70504
        5  | 15:40.05 |  6:27.67 |     70505    |    99596
        6  | 22:07.72 |  5:11.30 |     99597    |   122951
        7  | 27:19.27 |  4:49.24 |    122952    |   144650
        8  | 32:08.51 |  6:22.48 |    144651    |   173348
        9  | 38:31.24 |  8:47.27 |    173349    |   212900

Range status and errors

Selected range

     Filename H:\BLAZON STONE [2013] [CD] Return To Port Royal [EAC-WV]\Blazon Stone - Return To Port Royal.wav

     Peak level 98.5 %
     Extraction speed 3.2 X
     Range quality 100.0 %
     Test CRC 7963F41E
     Copy CRC 7963F41E
     Copy OK

No errors occurred

AccurateRip summary

Track  1  not present in database
Track  2  not present in database
Track  3  not present in database
Track  4  not present in database
Track  5  not present in database
Track  6  not present in database
Track  7  not present in database
Track  8  not present in database
Track  9  not present in database

None of the tracks are present in the AccurateRip database

End of status report

---- CUETools DB Plugin V2.1.3

[CTDB TOCID: DJQ4SAQ3nplY0V9T3poBB4uFKsk-] found, Submit result: DJQ4SAQ3nplY0V9T3poBB4uFKsk- has been confirmed
[bc2a3651] (1/1) Accurately ripped

==== Log checksum 893CD0E0CD2041588DF2C116DA55DCBB2A7369F564E9398586DC7F53D5974741 ====
Код:

-----------------------

DON'T MODIFY THIS FILE

-----------------------

PERFORMER: auCDtect Task Manager, ver. 1.5.1RC4 build 1.5.1.5
Copyright (c) 2008-2010 y-soft. All rights reserved
http://y-soft.org

ANALYZER: auCDtect: CD records authenticity detector, version 0.8.2
Copyright (c) 2004 Oleg Berngardt. All rights reserved.
Copyright (c) 2004 Alexander Djourik. All rights reserved.

FILE: Blazon Stone - Return To Port Royal.wv
  Size: 336994467 Hash: 0386ABF02B3410565B786D6E2DA30426 Accuracy: -m0
  Conclusion: CDDA 100%
  Signature: 2F736A99599117B87FDD89AB1A7284FAB5B1529C
За предоставленный материал спасибо FireSnake

Время раздачи: Обычно с 19:00 до 00:00 :спит:



Поглощение/вытеснение
Только с согласия релизера

Bigbeer
[NNM-Club.me]_Blazon Stone - Return To Port Royal (2013) WV.torrent
 Торрент: Платиновая раздача  Зарегистрирован
 
Скачать


Примагнититься
 Зарегистрирован:   26 Ноя 2013 17:57:46
 Размер:   347 MB  (
 Рейтинг:   4.8 (Голосов: 16)
 Поблагодарили:   46
 Проверка:   Оформление проверено модератором 26 Ноя 2013 18:26:21
Как cкачать  ·  Как раздать  ·  Правильно оформить  ·  Поднять ратио!  
auux
Стаж: 11 лет 1 мес.
Сообщений: 80
Ratio: 8.732
Поблагодарили: 41
100%
ussr.gif
СПАСИБО! ЗАВОДНАЯ МУЗА!
Топик был перенесен из форума Metal (Lossless) в форум Архив Музыки

Причина переноса: Длительное отсутствие сида на протяжении более 6 месяцев.

Исправил релиз - напиши ЛС chaosman1986, дав ссылку на релиз.
Если нет ответа 24 часа - нажми на кнопку "Обратить внимание модераторов".
Показать сообщения:   
Начать новую тему   Ответить на тему    Торрент-трекер NNM-Club -> Архив торрентов -> Архив Музыки Часовой пояс: GMT + 3
Страница 1 из 1