Классический форум-трекер
canvas not supported
Нас вместе: 4 172 091

Однажды, 20 Лет Спустя (1980) TVRip


Страницы:   Пред.  1, 2 
 
RSS
Начать новую тему   Ответить на тему    Торрент-трекер NNM-Club -> Классика кино и Старые фильмы до 90-х -> Старые Отечественные Фильмы (HD*Rip/LQ, DVDRip, SATRip, VHSRip)
Автор Сообщение
master1982 ®
Стаж: 14 лет 10 мес.
Сообщений: 83
Ratio: 44.617
Поблагодарили: 1900
100%
ussr.gif
Однажды двадцать лет спустя (1980) TVRip
Год выпуска: 1980
Производство: СССР, Киностудия им.М. Горького
Жанр: мелодрама, комедия

Описание фильма:
Выпускники одной из московских школ через двадцать лет после окончания собираются вместе. Каждого просят ответить на два вопроса: «Что вы уже сделали?» и «Чего еще в жизни ждете?». Вместе с бывшими однокашниками пытается найти ответы на поставленные вопросы и главная героиня фильма — многодетная мать Надя Круглова.

Режиссер: Юрий Егоров
Актеры: Наталья Гундарева, Виктор Проскурин, Евгений Лазарев, Олег Ефремов, Валентина Титова, Александр Потапов, Игорь Ясулович, Валентин Смирнитский, Ольга Гобзева, Алёна Чухрай, Андрей Юренев, Инга Будкевич, Марина Яковлева, Сережа Белов, Татьяна Назарова (III), Алексей Ясулович, Дарья Мальчевская, Максим Пучков, Таня Бурвикова, Елена Борзунова, Костя Сиваев, Витя Плаксин, Дима Моряшев, Оля Остапенко, Мария Пискунова, Наташа Земцова, Миша Ипатенко, Олеся Лосева, Наташа Андреева, Женя Селиванов, Алеша Акмальдинов

Продолжительность: 01:13:31
Качество видео: TVRip



Видеокодек: DivX 5
Битрейт видео: 1 209 Kbps
Размер кадра: 512x384
Аудиокодек: MP3, 1 channel
Битрейт аудио: 128 Kbps
Однажды 20 лет спустя.avi
Format : AVI
Format/Info : Audio Video Interleave
File size : 708 MiB
Duration : 1h 13mn
Overall bit rate : 1 347 Kbps
Writing application : VirtualDubMod 1.4.13
Writing library : VirtualDub build 14328/release

Video
ID : 0
Format : MPEG-4 Visual
Format settings, BVOP : 1
Format settings, QPel : No
Format settings, GMC : No warppoints
Format settings, Matrix : Default (H.263)
Muxing mode : Packed bitstream
Codec ID : DX50
Codec ID/Hint : DivX 5
Duration : 1h 13mn
Bit rate : 1 209 Kbps
Width : 512 pixels
Height : 384 pixels
Display aspect ratio : 4:3
Frame rate : 25.000 fps
Color space : YUV
Chroma subsampling : 4:2:0
Bit depth : 8 bits
Scan type : Progressive
Compression mode : Lossy
Bits/(Pixel*Frame) : 0.246
Stream size : 636 MiB (90%)
Writing library : DivX 5.2.1 Alpha (UTC 2004-09-08)

Audio
ID : 1
Format : MPEG Audio
Format version : Version 1
Format profile : Layer 3
Codec ID : 55
Codec ID/Hint : MP3
Duration : 1h 13mn
Bit rate mode : Constant
Bit rate : 128 Kbps
Channel(s) : 1 channel
Sampling rate : 44.1 KHz
Compression mode : Lossy
Delay relative to video : 64ms
Stream size : 67.3 MiB (10%)
Alignment : Split accross interleaves
Interleave, duration : 40 ms (1.00 video frame)
Interleave, preload duration : 499 ms
Скриншоты:


Реставрация релиза: smaster67
Odnagdi 20 let spustia.torrent
 Торрент: Платиновая раздача  Зарегистрирован
 
Скачать


 Зарегистрирован:   20 Июл 2007 23:31:57
 Размер:   708 MB  (
 Рейтинг:   4.6 (Голосов: 88)
 Поблагодарили:   296
 Проверка:   Оформление проверено модератором 20 Июл 2007 23:56:32
Как cкачать  ·  Как раздать  ·  Правильно оформить  ·  Поднять ратио!  

_________________
Говорю кратко, прошу мало, ухожу борзо.
Diesel88
Стаж: 8 лет 11 мес.
Сообщений: 1666
Ratio: 21.121
100%
ussr.gif
Отзывы об этой кинокартине довольно хорошие,тогда тоже гляну ее.Благодарю
kirgh
Стаж: 10 лет 8 мес.
Сообщений: 54
Ratio: 2.302
92.43%
Откуда: Сатка
ussr.gif
Отличный фильм. Надо такие фильмы в школе показывать!
Показать сообщения:   
Начать новую тему   Ответить на тему    Торрент-трекер NNM-Club -> Классика кино и Старые фильмы до 90-х -> Старые Отечественные Фильмы (HD*Rip/LQ, DVDRip, SATRip, VHSRip) Часовой пояс: GMT + 3
Страницы:   Пред.  1, 2
Страница 2 из 2