Классический форум-трекер
canvas not supported
Нас вместе: 4 166 063

Подводная Одиссея команды Жака Кусто: Мир без солнца / Le monde sans soleil (1964) BDRemux [H.264/1080p]


 
 
RSS
Начать новую тему   Ответить на тему    Торрент-трекер NNM-Club -> Зарубежные TV-бренды -> Одиссея Жака Кусто
Автор Сообщение
Gevolt ®
Update 100+
Стаж: 10 лет
Сообщений: 890
Ratio: 4877.064
Раздал: 196.5 TB
Поблагодарили: 97126
100%
Откуда: Нижний Новгород
Подводная Одиссея команды Жака Кусто: Мир без солнца / Le monde sans soleil (1964) BDRemux
Производство: США, Франция, Италия / C.E.I.A.P., Filmad, Orsay Films
Жанр: Документальный, Природа, Наука

Режиссер: Жак Ив Кусто

Описание:
Могут ли люди жить и работать под водой в течение месяца? Жак Кусто и его команда пытаются дать ответ на этот вопрос. Резиденция и вместе с этим лаборатория «Морская звезда» становится их штаб-квартирой. Здесь аквалангисты могут свободно выходить и снова погружаться в воду, чтобы вести наблюдение и изучать жизнь под водой. Кусто и его команда остаются под водой 27 дней на глубине 300 футов. Фильм представляет собой хронику этой необычной экспедиции.
Премия «Оскар» за Лучший документальный фильм, 1965г.


Возраст: 0+ (для любой зрительской аудитории)

Продолжительность: 01:33:03
Перевод: Одноголосый профессиональный

Качество видео: BDRemux
Видеокодек: AVC/H.264, 1920x1080, ~30.1 Mbps
Аудио 1: AC3, 2 ch, 192 Kbps - Русский одногоголосый (Селена Интернешнл)
Аудио 2: AC3, 2 ch, 224 Kbps - Французский (оригинал)
General
ID : 1 (0x1)
Complete name : D:\uTorrent\WORLD.WITHOUT.SUN.1964.BD-REMUX\BDMV\STREAM\00000.m2ts
Format : BDAV
Format/Info : Blu-ray Video
File size : 20.7 GiB
Duration : 1h 33mn
Overall bit rate mode : Variable
Overall bit rate : 31.8 Mbps
Maximum Overall bit rate : 35.5 Mbps

Video
ID : 4113 (0x1011)
Menu ID : 1 (0x1)
Format : AVC
Format/Info : Advanced Video Codec
Format profile : High@L4.1
Format settings, CABAC : Yes
Format settings, ReFrames : 4 frames
Codec ID : 27
Duration : 1h 33mn
Bit rate mode : Variable
Bit rate : 30.1 Mbps
Maximum bit rate : 33.0 Mbps
Width : 1 920 pixels
Height : 1 080 pixels
Display aspect ratio : 16:9
Frame rate : 24.000 fps
Color space : YUV
Chroma subsampling : 4:2:0
Bit depth : 8 bits
Scan type : Progressive
Bits/(Pixel*Frame) : 0.606
Stream size : 19.6 GiB (95%)
Color primaries : BT.709-5, BT.1361, IEC 61966-2-4, SMPTE RP177
Transfer characteristics : BT.709-5, BT.1361
Matrix coefficients : BT.709-5, BT.1361, IEC 61966-2-4 709, SMPTE RP177

Audio #1
ID : 4352 (0x1100)
Menu ID : 1 (0x1)
Format : AC-3
Format/Info : Audio Coding 3
Mode extension : CM (complete main)
Codec ID : 129
Duration : 1h 33mn
Bit rate mode : Constant
Bit rate : 192 Kbps
Channel(s) : 2 channels
Channel positions : Front: L R
Sampling rate : 48.0 KHz
Bit depth : 16 bits
Compression mode : Lossy
Stream size : 128 MiB (1%)
Language : Russian

Audio #2
ID : 4353 (0x1101)
Menu ID : 1 (0x1)
Format : AC-3
Format/Info : Audio Coding 3
Mode extension : CM (complete main)
Codec ID : 129
Duration : 1h 33mn
Bit rate mode : Constant
Bit rate : 224 Kbps
Channel(s) : 2 channels
Channel positions : Front: L R
Sampling rate : 48.0 KHz
Bit depth : 16 bits
Compression mode : Lossy
Stream size : 149 MiB (1%)
Language : French
Скриншоты:


Все одноименные релизы в Клубе

Все релизы Жака Кусто в Клубе
Время раздачи: с 10:00 до 24:00 (2/2)
[NNMClub.to]_WORLD.WITHOUT.SUN.1964.BD-REMUX.torrent
 Торрент: Платиновая раздача  Зарегистрирован
 
Скачать


Примагнититься
 Зарегистрирован:   14 Окт 2021 12:54:54
 Размер:   20.7 GB  (
 Рейтинг:   5 (Голосов: 23)
 Поблагодарили:   76
 Проверка:   Оформление проверено модератором 14 Окт 2021 12:56:23
Как cкачать  ·  Как раздать  ·  Правильно оформить  ·  Поднять ратио!  
radian
Стаж: 11 лет 6 мес.
Сообщений: 5
Ratio: 2.356
5.26%
latvia.gif
Кто-нибудь на раздаче будет? Дайте докачать вторую половину please!
zomanova
Стаж: 10 лет 3 мес.
Сообщений: 68
Ratio: 46.124
100%
Подкиньте скорости))
uzver80
Uploader 100+
 
Стаж: 10 лет 7 мес.
Сообщений: 367
Ratio: 1097.781
100%
Откуда: от туда
ussr.gif
За два месяца скачал 47% раздачи и все. Пришлось докачивать на другом трекере. Теперь буду поддерживать раздачу по мере возможности!
Топик был перенесен из форума Одиссея Жака Кусто в форум Архив Документалистики и TV

Причина переноса: Нет сида больше 3-х месяцев.

Исправил релиз - напиши ЛС svlesin, дав ссылку на релиз.
Если нет ответа 24 часа - нажми на кнопку "Обратить внимание модераторов".
NorthOn
 
Админ
Стаж: 15 лет 2 мес.
Сообщений: 14841
Ratio: 3207.939
Поблагодарили: 14597
100%
nnm-club.gif
Торрент обновлен в рамках акции Включаем DHT в древних раздачах
Просьба к скачавшим ранее и желающим подключиться к раздаче, перекачать торрент-файл.

_________________
Либо я найду путь, либо проложу его...
Показать сообщения:   
Начать новую тему   Ответить на тему    Торрент-трекер NNM-Club -> Зарубежные TV-бренды -> Одиссея Жака Кусто Часовой пояс: GMT + 3
Страница 1 из 1