Классический форум-трекер
canvas not supported
Нас вместе: 4 172 571

Страсти по Владимиру (1990) SATRip


 
 
RSS
Начать новую тему   Ответить на тему    Торрент-трекер NNM-Club -> Классика кино и Старые фильмы до 90-х -> Старые Отечественные Фильмы (HD*Rip/LQ, DVDRip, SATRip, VHSRip)
Автор Сообщение
smpeal ®
Стаж: 9 лет 3 мес.
Сообщений: 60
Ratio: 90
Поблагодарили: 6639
100%
ussr.gif
Страсти по Владимиру (1990) SATRip
Киностудия: Ленфильм
Год выпуска: 1990
Жанр: Комедия

Описание фильма:
Действие фильма происходит в кабинете руководителя одного из НИИ. Решается проблема, быть или не быть концерту Высоцкого в клубе института. Начальство категорически против, но все сотрудники уже оповещены и с нетерпением ожидают выступления любимого артиста...

По пьесе Марка Розовского "Концерт Высоцкого в НИИ".

Режиссер: Марк Розовский
Актеры: Владимир Долинский, Галина Борисова, Вера Улик, Игорь Старосельцев, Александр Лукаш, Семён Фарада, Петр Козюлин, Александр Иванов, Александр Столяров, Александр Вилков, Юрий Голубцов, Александр Миронов, Андрей Молотков, Андрей Ургант, Владимир Юматов, Алексей Селезнев

Продолжительность: 01:55:19
Качество видео: SATRip



Видеокодек: Xvid
Битрейт видео: 2400 Kbps
Размер кадра: 688x512
Аудиокодек: AC3
Битрейт аудио: 192 Kbps, 2 канала
Общее
Полное имя : Z:\Фильмы\Отечественные\Страсти по Владимиру (1990) SATRip.avi
Формат : AVI
Формат/Информация : Audio Video Interleave
Профиль формата : OpenDML
Размер файла : 2,10 Гбайт
Продолжительность : 1 ч. 55 м.
Общий поток : 2605 Кбит/сек
Программа кодирования : VirtualDubMod 1.5.10.3 | www.virtualdub-fr.org || (build 2550/release)
Библиотека кодирования : VirtualDubMod build 2550/release

Видео
Идентификатор : 0
Формат : MPEG-4 Visual
Профиль формата : Advanced Simple@L5
Параметр BVOP формата : 2
Параметр QPel формата : Нет
Параметр GMC формата : Без точки перехода
Параметр матрицы формата : Выборочная
Идентификатор кодека : XVID
Идентификатор кодека/Подсказка : XviD
Продолжительность : 1 ч. 55 м.
Битрейт : 2400 Кбит/сек
Ширина : 688 пикселей
Высота : 512 пикселей
Соотношение сторон : 4:3
Частота кадров : 25,000 кадров/сек
Цветовое пространство : YUV
Субдискретизация насыщенности : 4:2:0
Битовая глубина : 8 бит
Тип развёртки : Прогрессивная
Метод сжатия : С потерями
Бит/(Пиксели*Кадры) : 0.273
Размер потока : 1,93 Гбайт (92%)
Библиотека кодирования : XviD 64

Аудио
Идентификатор : 1
Формат : AC-3
Формат/Информация : Audio Coding 3
Расширение режима : CM (complete main)
Параметр Endianness формата : Big
Идентификатор кодека : 2000
Продолжительность : 1 ч. 55 м.
Вид битрейта : Постоянный
Битрейт : 192 Кбит/сек
Каналы : 2 канала
Расположение каналов : Front: L R
Частота : 48,0 КГц
Битовая глубина : 16 бит
Метод сжатия : С потерями
Размер потока : 158 Мбайт (7%)
Выравнивание : Разделение по промежуткам
Продолжительность промежутка : 40 мс. (1,00 видеокадр)
Время предзагрузки промежутка : 500 мс.
Скриншоты:
Время раздачи: По выходным 12-24, иногда в будни вечером
[nnm-club]_Strasti_po_Vladimiru_1990_SATRip_avi.torrent
 Торрент: Платиновая раздача  Зарегистрирован
 
Скачать


Примагнититься
 Зарегистрирован:   02 Авг 2013 22:29:04
 Размер:   2.1 GB  (
 Рейтинг:   4.8 (Голосов: 50)
 Поблагодарили:   200
 Проверка:   Оформление проверено модератором 22 Окт 2021 14:39:02
Как cкачать  ·  Как раздать  ·  Правильно оформить  ·  Поднять ратио!  
grobewq
Uploader 700+
Стаж: 9 лет 8 мес.
Сообщений: 715
Ratio: 41K
Раздал: 907.1 TB
Поблагодарили: 26545
100%
russia.gif
Отличный фильм. Показаны не только страсти по Владимиру. Но и целый срез эпохи, когда подчинённый мог отказаться выполнять распоряжение начальника, а начальник побаивался сказать что-нибудь, идущее вразрез с „линией партии“.
Alias_Divas
 
Стаж: 14 лет 8 мес.
Сообщений: 400
Ratio: 13.628
Раздал: 14.53 TB
Поблагодарили: 4916
100%
Откуда: окрестности Бетельгейзе
krevedko.png
del.
don_ald
Стаж: 14 лет 10 мес.
Сообщений: 241
Ratio: 52.812
Поблагодарили: 1310
100%
russia.gif
– Боже мой!.. Зинаида Порфирьевна, Суслоперов, Дубомудров, министр… А решил все сторож дядя Федя!
petroviz
Стаж: 10 лет 11 мес.
Сообщений: 293
Ratio: 5.203
14.44%
russia.gif
Повелся на первый пост,скачал--кавно кавном,начало -вроде ничего,а потом -одно и тоже ,короче мне как пенсионеру и человеку жившему в то время неинтересно....Будь кино отличным,его бы запомнили с 90 х..к сожалению,нынче много подобной шушеры,наснимали в свое время и на полку...это вам не вино- коньяк или виски,которому время только на пользу..
Vovaka-barabaka
Стаж: 10 лет 1 мес.
Сообщений: 121
Ratio: 1.186
6.03%
ussr.gif
Люблю и много раз пересматривал. Фильм конечно не высокохудожественный, я б даже сказал что это больше отлично сыгранный великолепными актерами сатирический "капустник", обыгрывающий со всех сторон загнивающий советско-бюрократический уклад и ситуации "начальник-подчиненный". И всё это не выходя весь фильм из директорского кабинета.
Показать сообщения:   
Начать новую тему   Ответить на тему    Торрент-трекер NNM-Club -> Классика кино и Старые фильмы до 90-х -> Старые Отечественные Фильмы (HD*Rip/LQ, DVDRip, SATRip, VHSRip) Часовой пояс: GMT + 3
Страница 1 из 1