Классический форум-трекер
canvas not supported
Нас вместе: 4 195 889

Феррари / Ferrari (2003) DVD9


 
 
RSS
Начать новую тему   Ответить на тему    Торрент-трекер NNM-Club -> Зарубежное кино -> Зарубежные Фильмы (DVD)
Автор Сообщение
Skuratoff ®
Стаж: 11 лет 2 мес.
Сообщений: 5
Ratio: 982.699
Раздал: 231.5 TB
Поблагодарили: 125
100%
russia.gif
Феррари / Ferrari (2003) DVD9
Русское название: Феррари
Оригинальное название: Ferrari
Год выпуска: 2003
Жанр: Драма

Описание фильма:
Этот фильм — биография итальянского конструктора и предпринимателя Энцо Феррари, который создал самую знаменитую спортивную машину в мире. Он одерживал блистательные гоночные победы и покорял сердца прекрасных женщин.

Он построил завод, осуществив детскую мечту о суперскоростном автомобиле, и собрал звёздную команду гонщиков, ставшую легендой «Формулы-1». Он пережил оккупацию родной страны и познал горечь утрат от потери своих близких.

Режиссер: Карло Карлеи / Karlo Karley
Актеры: Серджо Кастеллитто, Эд Стоппард, Джессика Брукс, Пьерфранческо Фавино, Винсент Скьявелли, Габриэлла Пессион, Пьетро Рагуса, Франческа Де Сапио, Антон Александр

Продолжительность: 02:06:04

Перевод: Многоголосый закадровый
Язык субтитров: Русский
Вид субтитров: Вшитые (отключаемые)



Видеокодек: MPEG-2
Битрейт видео: ~ 6000 Кбит/с
Размер кадра: 720x576@1024x576
Качество видео: DVD
Аудио:
1. AC3, 2 ch, 192 Кбит/с - русский
2. AC3, 2 ch, 192 Кбит/с - английский
Доп. материалы: - Трейлер, фильмографии, анонсы кино.
Title: FERRARI
Size: 6.56 Gb ( 6 879 194,00 KBytes ) - DVD-9
Enabled regions: 5

VTS_01 :
Play Length: 02:06:04
Video: PAL 16:9 (720x576) VBR, Auto Letterboxed
Audio:
Russian (Dolby AC3, 2 ch)
English (Dolby AC3, 2 ch)
Subtitles:
Russian

VTS_02 :
Play Length: 00:00:10+00:00:10
Video: PAL 4:3 (720x576) VBR
Audio:
Russian (Dolby AC3, 2 ch)

VTS_03 :
Play Length: 00:00:16+00:00:48
Video: PAL 16:9 (720x576) VBR, Auto Letterboxed
Audio:
Russian (Dolby AC3, 2 ch)
Subtitles:
Russian

VTS_04 :
Play Length: 00:02:08+{00:00:00}
Video: PAL 4:3 (720x576) VBR
Audio:
Russian (Dolby AC3, 2 ch)

VTS_05 :
Play Length: 00:01:35+00:01:33+00:01:06+00:02:13+00:01:48
Video: PAL 4:3 (720x576) VBR
Audio:
Russian (Dolby AC3, 2 ch)

* Menus Information *

VIDEO_TS Menu
Video:
PAL 16:9 (720x576) VBR
Auto Letterboxed
Audio:
Not specified (Dolby AC3, 2 ch)
Russian Language Unit :
Title Menu

VTS_01 Menu
Video:
PAL 16:9 (720x576) VBR
Auto Letterboxed
Audio:
Not specified (Dolby AC3, 2 ch)
Russian Language Unit :
Root Menu
Chapter (PTT) Menu

VTS_02 Menu
Video:
PAL 16:9 (720x576) VBR
Auto Letterboxed
Audio:
Not specified (Dolby AC3, 2 ch)
Russian Language Unit :
Root Menu
Audio Menu

VTS_03 Menu
Video:
NTSC 4:3 (720x480) VBR
Auto Pan&Scan, Auto Letterboxed
Russian Language Unit :
Root Menu

VTS_04 Menu
Video:
NTSC 4:3 (720x480) VBR
Auto Pan&Scan, Auto Letterboxed
Russian Language Unit :
Root Menu

VTS_05 Menu
Video:
NTSC 4:3 (720x480) VBR
Auto Pan&Scan, Auto Letterboxed
Russian Language Unit :
Root Menu
Общее
Полное имя : Z:\DVD\Энцо Феррари (Enzo Ferrari)\Ferrari\VIDEO_TS\VTS_01_1.VOB
Формат : MPEG-PS
Размер файла : 1024 Мбайт
Продолжительность : 21 м.
Режим общего битрейта : Переменный
Общий поток : 6513 Кбит/сек

Видео
Идентификатор : 224 (0xE0)
Формат : MPEG Video
Версия формата : Version 2
Профиль формата : Main@Main
Параметр BVOP формата : Да
Параметр матрицы формата : Выборочная
Параметр GOP формата : M=3, N=12
Продолжительность : 21 м.
Вид битрейта : Переменный
Битрейт : 6000 Кбит/сек
Максимальный битрейт : 8000 Кбит/сек
Ширина : 720 пикселей
Высота : 576 пикселей
Соотношение сторон : 16:9
Частота кадров : 25,000 кадров/сек
Стандарт вещания : PAL
Цветовое пространство : YUV
Субдискретизация насыщенности : 4:2:0
Битовая глубина : 8 бит
Тип развёртки : Чересстрочная
Порядок развёртки : Верхнее поле первое
Метод сжатия : С потерями
Бит/(Пиксели*Кадры) : 0.579
Размер потока : 943 Мбайт (92%)
Основные цвета : BT.601 NTSC
Характеристики трансфера : BT.601
Коэффициенты матрицы : BT.601

Аудио #1
Идентификатор : 189 (0xBD)-128 (0x80)
Формат : AC-3
Формат/Информация : Audio Coding 3
Расширение режима : CM (complete main)
Параметр Endianness формата : Big
Режим смешивания : DVD-Video
Продолжительность : 21 м.
Вид битрейта : Постоянный
Битрейт : 192 Кбит/сек
Каналы : 2 канала
Расположение каналов : Front: L R
Частота : 48,0 КГц
Битовая глубина : 16 бит
Метод сжатия : С потерями
Размер потока : 30,2 Мбайт (3%)

Аудио #2
Идентификатор : 189 (0xBD)-129 (0x81)
Формат : AC-3
Формат/Информация : Audio Coding 3
Расширение режима : CM (complete main)
Параметр Endianness формата : Big
Режим смешивания : DVD-Video
Продолжительность : 21 м.
Вид битрейта : Постоянный
Битрейт : 192 Кбит/сек
Каналы : 2 канала
Расположение каналов : Front: L R
Частота : 48,0 КГц
Битовая глубина : 16 бит
Метод сжатия : С потерями
Размер потока : 30,2 Мбайт (3%)

Текст
Идентификатор : 189 (0xBD)-32 (0x20)
Формат : RLE
Формат/Информация : Run-length encoding
Режим смешивания : DVD-Video
Задержка видео : 1 с. 80 мс.
Скриншоты:


Время раздачи: 24/7 - круглосуточно
[NNM-Club.ru]_Ferrari.torrent
 Торрент: Платиновая раздача  Зарегистрирован
 
Скачать


 Зарегистрирован:   21 Авг 2012 14:42:02
 Размер:   6.56 GB  (
 Рейтинг:   4.5 (Голосов: 13)
 Поблагодарили:   40
 Проверка:   Оформление проверено модератором 24 Авг 2012 00:16:30
Как cкачать  ·  Как раздать  ·  Правильно оформить  ·  Поднять ратио!  
desz
Стаж: 11 лет 4 мес.
Сообщений: 457
Ratio: 1.763
15.86%
Откуда: Реальность
ukraine.gif
Это шедевр, советую не только любителям марки!
PetrV
Стаж: 11 лет 2 мес.
Сообщений: 1
Ratio: 8.223
100%
Совсем никого на раздаче (

Очень хочется в коллекцию, в хорошем качестве. Душевное кино, особенно финал. Не первый раз пересматриваю.
Показать сообщения:   
Начать новую тему   Ответить на тему    Торрент-трекер NNM-Club -> Зарубежное кино -> Зарубежные Фильмы (DVD) Часовой пояс: GMT + 3
Страница 1 из 1