Классический форум-трекер
canvas not supported
Нас вместе: 4 231 805

History Channel: Тетрис: Из России с любовью / TETRIS. From Russia With Love / TETЯIS. From Russia With Love (2004) TVRip


 
 
RSS
Начать новую тему   Ответить на тему    Торрент-трекер NNM-Club -> Зарубежные TV-бренды -> History Channel
Автор Сообщение
Гость ®
History Channel: Тетрис: Из России с любовью / TETRIS. From Russia With Love / TETЯIS. From Russia With Love (2004) TVRip
Производство: Великобритания / Ricochet Digital
Жанр: документальный

Режиссер: Магнус Темпл

Описание:
Лет 20 назад вся Москва играла в Тетрис. До работы, после работы и, конечно, вместо работы. Это была эпидемия. Никому не приходило в голову, что у программы этой игры есть автор, а мысль о том, что любая программа стоит денег казалась более, чем абсурдной. Тетрис качали друг у друга, не задумываясь.

Фильм рассказывает об истории создания Тетриса, наверное, гениальным программистом Алексеем Пажитновым. Он сумел изобрести игру, которая по идеологии отличалась от других: там надо было созидать, а не стрелять или догонять. Это оказалось столь новаторским, что игра быстро ушла за рубежи, хотя и в наши страны, а там ее заприметили настоящие акулы капитализма.
Далее идет настоящий детектив, в котором известные уже тогда в СССР (!) Mаксвелл и Атари, а также другие фирмы стали бороться за распространение Тетриса в разных вариантах, и тут Тетрис завоевал Европу... и Америку... и Японию. Доходы, которые эта гениальная игра приносила, были астрономическими. Совершенно ясно, что они до автора не доходили, да и до СССР тоже. Всю интригу в фильме объясняют подробно. Впрочем, автору еще повезло - А.Пажитнов уехал в США и теперь работает у Билла Гейтcа. Интервью, и не одно, с ним тоже в фильме есть.



Продолжительность: 00:58:54
Качество видео: TVRip
Перевод: Профессиональный

Видеокодек: DivX, 696x568, 374 KB/s
Аудиокодек: MP3, 2 ch, 64 KB/s

Общее
Полное имя : G:\T_f\TETЯIS - From russia with love.avi
Формат : AVI
Формат/Информация : Audio Video Interleave
Настройки формата : BitmapInfoHeader / WaveFormatEx
Размер файла : 185 Мбайт
Продолжительность : 58 м. 53 с.
Общий поток : 438 Кбит/сек
Частота кадров : 25,000 кадров/сек
Программа кодирования : VirtualDubMod 1.5.10.1 (build 2366/release)
Библиотека кодирования : VirtualDubMod build 2366/release

Видео
Идентификатор : 0
Формат : MPEG-4 Visual
Настройки формата : BVOP2
Параметр BVOP формата : 2
Параметр QPel формата : Нет
Параметр GMC формата : Без точки перехода
Параметр матрицы формата : Default (H.263)
Режим смешивания : Сжатый битовый поток
Идентификатор кодека : DX50
Идентификатор кодека/Подсказка : DivX 5
Продолжительность : 58 м. 53 с.
Битрейт : 365 Кбит/сек
Номинальный битрейт : 9 708 Кбит/сек
Ширина : 696 пикселей
Высота : 568 пикселей
Соотношение сторон : 1,225
Частота кадров : 25,000 кадров/сек
Цветовое пространство : YUV
Субдискретизация насыщенности : 4:2:0
Битовая глубина : 8 бит
Тип развёртки : Прогрессивная
Метод сжатия : С потерями
Бит/(Пиксели*Кадры) : 0.037
Размер потока : 154 Мбайт (83%)
Библиотека кодирования : DivX 6.2.5 (2006-07)

Аудио
Идентификатор : 1
Формат : MPEG Audio
Версия формата : Version 1
Профиль формата : Layer 3
Идентификатор кодека : 55
Идентификатор кодека/Подсказка : MP3
Продолжительность : 58 м. 53 с.
Вид битрейта : Постоянный
Битрейт : 64,0 Кбит/сек
Каналы : 1 канал
Частота : 48,0 КГц
Метод сжатия : С потерями
Размер потока : 27,0 Мбайт (15%)
Выравнивание : Разделение по промежуткам
Продолжительность промежутка : 40 мс. (1,00 видеокадр)
Время предзагрузки промежутка : 500 мс.
Скриншоты:


Все одноименные релизы в Клубе
TETЯIS - From russia with love_nnm.torrent
 Торрент: Платиновая раздача  Зарегистрирован
 
Скачать


Примагнититься
 Зарегистрирован:   31 Мар 2023 15:45:47
 Размер:   185 MB  (
 Рейтинг:   4 (Голосов: 80)
 Поблагодарили:   187
 Проверка:   Оформление проверено модератором 31 Мар 2023 17:50:55
Как cкачать  ·  Как раздать  ·  Правильно оформить  ·  Поднять ратио!  
AlexiSSG
Uploader 100+ Реставратор
 
Стаж: 13 лет 5 мес.
Сообщений: 8062
Ratio: 159.489
Поблагодарили: 13406
100%
ussr.gif
Торрент перерегистрирован на трекере в рамках акции Включаем DHT в древних раздачах
Теперь вам нужно его скачать и открыть в торрент-клиенте, указав в качестве места сохранения раздаваемый файл или папку.
Код: выделить все

[url=https://i.ibb.co/3fnh7Qd/TET-IS-From-russia-with-love-avi-snapshot-05-45-457.jpg][img]https://i.ibb.co/t3hPW4h/thumb-06fd035fe29e5f1cca7408b6ff41dfc7.png[/img][/url]  [url=https://i.ibb.co/686Dw0S/TET-IS-From-russia-with-love-avi-snapshot-06-04-880.jpg][img]https://i.ibb.co/54Xd0R4/thumb-51e67892fa6aa01a2a686c198487f126.png[/img][/url]  [url=https://i.ibb.co/DR7W93x/TET-IS-From-russia-with-love-avi-snapshot-06-24-840.jpg][img]https://i.ibb.co/DfHbx9m/thumb-89b99a08c230cae0af375090778aace7.png[/img][/url]  [url=https://i.ibb.co/DMKBv7Z/TET-IS-From-russia-with-love-avi-snapshot-51-13-040.jpg][img]https://i.ibb.co/CPgRxJH/thumb-fc2dbbf41a25e171bbce4e142b45aa40.png[/img][/url]
Код: выделить все

Общее
Полное имя                               : G:\T_f\TETЯIS - From russia with love.avi
Формат                                   : AVI
Формат/Информация                        : Audio Video Interleave
Настройки формата                        : BitmapInfoHeader / WaveFormatEx
Размер файла                             : 185 Мбайт
Продолжительность                        : 58 м. 53 с.
Общий поток                              : 438 Кбит/сек
Частота кадров                           : 25,000 кадров/сек
Программа кодирования                    : VirtualDubMod 1.5.10.1 (build 2366/release)
Библиотека кодирования                   : VirtualDubMod build 2366/release

Видео
Идентификатор                            : 0
Формат                                   : MPEG-4 Visual
Настройки формата                        : BVOP2
Параметр BVOP формата                    : 2
Параметр QPel формата                    : Нет
Параметр GMC формата                     : Без точки перехода
Параметр матрицы формата                 : Default (H.263)
Режим смешивания                         : Сжатый битовый поток
Идентификатор кодека                     : DX50
Идентификатор кодека/Подсказка           : DivX 5
Продолжительность                        : 58 м. 53 с.
Битрейт                                  : 365 Кбит/сек
Номинальный битрейт                      : 9 708 Кбит/сек
Ширина                                   : 696 пикселей
Высота                                   : 568 пикселей
Соотношение сторон                       : 1,225
Частота кадров                           : 25,000 кадров/сек
Цветовое пространство                    : YUV
Субдискретизация насыщенности            : 4:2:0
Битовая глубина                          : 8 бит
Тип развёртки                            : Прогрессивная
Метод сжатия                             : С потерями
Бит/(Пиксели*Кадры)                      : 0.037
Размер потока                            : 154 Мбайт (83%)
Библиотека кодирования                   : DivX 6.2.5 (2006-07)

Аудио
Идентификатор                            : 1
Формат                                   : MPEG Audio
Версия формата                           : Version 1
Профиль формата                          : Layer 3
Идентификатор кодека                     : 55
Идентификатор кодека/Подсказка           : MP3
Продолжительность                        : 58 м. 53 с.
Вид битрейта                             : Постоянный
Битрейт                                  : 64,0 Кбит/сек
Каналы                                   : 1 канал
Частота                                  : 48,0 КГц
Метод сжатия                             : С потерями
Размер потока                            : 27,0 Мбайт (15%)
Выравнивание                             : Разделение по промежуткам
Продолжительность промежутка             : 40  мс. (1,00 видеокадр)
Время предзагрузки промежутка            : 500  мс.
Infectant
 
Стаж: 10 лет 8 мес.
Сообщений: 437
Ratio: 313.526
Раздал: 3.941 TB
Поблагодарили: 4605
100%
Откуда: Невьянск
ussr.gif
Качество картинки у раздачи оставляет желать лучшего. DivX древний формат, одни квадратики. Какое-то восьмибитное изображение. :D

_________________
DjCyrex
Стаж: 12 лет 6 мес.
Сообщений: 357
Ratio: 20.556
Поблагодарили: 2
100%
Откуда: Екатеринбург
russia.gif
Лет 20 назад вся Москва играл в Тетрис. Играла (исправьте пожалуйста). Хотя в тетрис мы играли в 1985-м.
tishin
Покровитель талантов
 
Стаж: 13 лет 1 мес.
Сообщений: 111
Ratio: 159.672
Раздал: 91.23 TB
100%
DjCyrex писал(а): Перейти к сообщению
Лет 20 назад вся Москва играл в Тетрис. Играла (исправьте пожалуйста). Хотя в тетрис мы играли в 1985-м.


Это оригинальное описание от 2004 года. 20 надо вычитать из 2004 :))
f_blaizer
Стаж: 16 лет 9 мес.
Сообщений: 113
Ratio: 42.468
100%
latvia.gif
Интересно было узнать как же Тетрис создавали. Но пропаганду умудрились запихнуть даже в документалку . А в новом фильме про Тетрис там вообще сплошная клюква про "Uszastnij KGB"и "sambistow оsobistow".
Показать сообщения:   
Начать новую тему   Ответить на тему    Торрент-трекер NNM-Club -> Зарубежные TV-бренды -> History Channel Часовой пояс: GMT + 3
Страница 1 из 1