Классический форум-трекер
canvas not supported
Нас вместе: 4 235 230

Фронт за линией фронта (1977) DVDRip


 
 
RSS
Начать новую тему   Ответить на тему    Торрент-трекер NNM-Club -> Архив торрентов -> Архив Классики кино и Старых фильмов до 90-х
Автор Сообщение
KukuSo ®
Стаж: 13 лет 2 мес.
Сообщений: 80
Ratio: 67.792
Поблагодарили: 6256
100%
russia.gif
Фронт за линией фронта (1977) DVDRip [2 серии]
«Героями не рождаются…»

Год выпуска: 1977
Жанр: Военный, драма

Описание фильма:
Второй фильм трилогии о партизанах и военных разведчиках, снятой по мотивам документального романа Семёна Кузьмича Цвигуна «Мы вернёмся», воспроизводящий период зимы 1943 года и начала 1944 года. После прорыва из окружения и соединения с регулярными войсками Красной Армией некогда отряд майора Ивана Млынского уже переформирован в полк особого назначения ГРУ ГШ Наркомата обороны, а сам майор Млынский не только остаётся командовать полком, но и удостаивается звания Героя Советского Союза и лично Сталиным повышен в воинском звании сразу до полковника. Усиленные людьми, вооружением, специальным оборудованием, батальоны полка перебрасываются в глубокий тыл гитлеровских войск…

Режиссер: Игорь Гостев
Актеры: Вячеслав Тихонов, Иван Лапиков, Евгений Матвеев, Галина Польских, Валерия Заклунная, Олег Жаков, Игорь Ледогоров, Георгий Николаенко, Евгений Шутов, Иван Переверзев, Артём Карапетян (текст за кадром) и др.

Продолжительность: 02:43:37
Качество видео: DVDRip



Формат: AVI
Видеокодек: DivX 5
Битрейт видео: ~1218 Кбит/сек, 25,000 кадр/сек
Размер кадра: 688 х 336 (2,05:1)
Аудиокодек: MP3 2.0
Битрейт аудио: 128 Кбит/сек
Исходник рипа: Фронт за линией фронта (спасибо picasood)
Награды
• 1978 – Государственная премия РСФСР имени братьев Васильевых — удостоены сценарист Семён Цвигун, режиссёр Игорь Гостев, оператор Александр Харитонов, художник Александр Самулекин, актёры Олег Жаков, Игорь Ледогоров, Галина Польских
• 1978 – Всесоюзный кинофестиваль в Ереване — Специальный приз Совета Министров Армянской ССР «за глубокую разработку военно-патриотической темы»
• 1978 – Всесоюзный кинофестиваль в Ереване — приз Военного Совета и политуправления Закавказского военного округа «за лучшее воплощение военно-патриотической темы на экране», почетный диплом жюри (фильм был показан вне конкурса)
• 1978 – Всесоюзный кинофестиваль в Ереване — приз Военного Совета и политуправления Закавказского военного округа «за лучшее воплощение военно-патриотической темы на экране»
• 1978 – V Международный кинофестиваль в Ташкенте — специальный диплом и приз Совета Министров Узбекской ССР
• 1979 – Премия Ленинского комсомола — сценарист Семён Цвигун, режиссёр Игорь Гостев, актёры Вячеслав Тихонов, Иван Лапиков[1]
• 1982 – XX фестиваль чешских и словацкий фильмов — специальная премия.

Интересные факты
• Автор романа «Мы вернёмся», Семён Кузьмич Цвигун (1917 – 1982) – советский государственный деятель, первый заместитель председателя КГБ СССР (1967 – 1982). Курировал третье (военная контрразведка) и пятое (борьба с идеологической диверсией) управления КГБ. Генерал армии (1978). Член ВКП(б) с 1940 года. Был женат на сестре жены Л. И. Брежнева.
• С.К.Цвигун взял псевдоним Семён Днепров и под таким именем обзначился в титрах и в постановлениях ЦК ВЛКСМ и Совмина РСФСР РС о присуждении ему премий Ленинского комсомола и Совмина РСФСР за сценарий. По некоторым данным, сценарии писал кинодраматург Вадим Трунин, а Цвигун осуществлял общее руководство. Бесспорно одно, что Цвигун отлично знал, о чем писал в романе по своему боевому опыту.

Некоторые цитаты из фильма
«…В Ставке Верховного командования Сталин одобряет действия отряда майора Млынского:
– Хорошо подметили, товарищ полковник.
– Извините, товарищ Сталин, я майор.
– Был майором, а стал полковником…»

Ошибки в фильме
• К сожалению, в фильме имеется огромное количество ошибок. Например, Верховный Главнокомандующий И. В. Сталин, принимающий майора Млынского у себя в Кремле, имеет на груди звезду Героя Советского Союза, но она была присвоена ему только в 1945 году. И даже после этого Сталин её не носил. К тому же, Сталин одет в парадный френч с золотыми погонами, хотя практически каждый день Сталин надевал обычный непримечательный френч.
• Немецко-фашистские захватчики ездят на грузовиках Урал-375Д, которые начали выпускаться в СССР только в 1960 году. Только «особо избранным» «немцам» (советским разведчикам на самом деле) достался «Мерседес».
General
Complete name : D:\Front_za_liniey_fronta(1977).avi
Format : AVI
Format/Info : Audio Video Interleave
File size : 1.55 GiB
Duration : 2h 43mn
Overall bit rate : 1 356 Kbps

Video
ID : 0
Format : MPEG-4 Visual
Format settings, BVOP : 1
Format settings, QPel : No
Format settings, GMC : No warppoints
Format settings, Matrix : Default (H.263)
Codec ID : DX50
Codec ID/Hint : DivX 5
Duration : 2h 43mn
Bit rate : 1 218 Kbps
Width : 688 pixels
Height : 336 pixels
Display aspect ratio : 2.048
Frame rate : 25.000 fps
Color space : YUV
Chroma subsampling : 4:2:0
Bit depth : 8 bits
Scan type : Progressive
Compression mode : Lossy
Bits/(Pixel*Frame) : 0.211
Stream size : 1.39 GiB (90%)
Writing library : DivX 6.8.5 (UTC 2009-08-20)

Audio
ID : 1
Format : MPEG Audio
Format version : Version 1
Format profile : Layer 3
Mode : Joint stereo
Mode extension : MS Stereo
Codec ID : 55
Codec ID/Hint : MP3
Duration : 2h 43mn
Source duration : 2h 43mn
Bit rate mode : Constant
Bit rate : 128 Kbps
Channel(s) : 2 channels
Sampling rate : 48.0 KHz
Compression mode : Lossy
Stream size : 150 MiB (9%)
Alignment : Aligned on interleaves
Interleave, duration : 40 ms (1.00 video frame)
Скриншоты:

Фронт за линией фронта  на NNM-club
Время раздачи: По возможности.Реставрация от: АлексКуз Отреставрировано
[NNM-Club.ru]_Front_za_liniey_fronta(1977).avi.torrent
 Торрент: Платиновая раздача  Зарегистрирован
 
Скачать


Примагнититься
 Зарегистрирован:   15 Май 2011 22:22:40
 Размер:   1.55 GB  (
 Рейтинг:   4.6 (Голосов: 27)
 Поблагодарили:   79
 Проверка:   Оформление проверено модератором 16 Май 2011 09:37:35
Как cкачать  ·  Как раздать  ·  Правильно оформить  ·  Поднять ратио!  
BGS
Стаж: 14 лет 1 мес.
Сообщений: 253
Ratio: 7.862
Поблагодарили: 464
7.97%
Откуда: Крым
russia.gif
KukuSo писал(а): Перейти к сообщению
Время раздачи: Круглосуточно, минимум до 15 скачавших
Че, правда?)) Хм...
Топик был перенесен из форума Старые Отечественные Фильмы (SD) в форум Архив Классики кино и Старых фильмов до 90-х

Причина переноса: Длительное отсутствие сида на протяжении более 6 месяцев.

Исправил релиз - напиши ЛС Alone_Kedr, дав ссылку на релиз.
Если нет ответа 24 часа - нажми на кнопку "Обратить внимание модераторов".
Показать сообщения:   
Начать новую тему   Ответить на тему    Торрент-трекер NNM-Club -> Архив торрентов -> Архив Классики кино и Старых фильмов до 90-х Часовой пояс: GMT + 3
Страница 1 из 1